Zombieland: Double Tap (2019) *1080p BluRay* - FGT

Release forum for : 720p, 1080i and 1080p.
Note: Please be aware of the technical requirements before posting in this section.

Moderator: unusual

Forum rules
Board rules & regulations

***Only movie releases with an horizontal resolution above 960pixels will be accepted in this section***
Post Reply
User avatar
lost_rider34
Phantom
Phantom
Posts: 568
Joined: October 1st 2009 - 6:36 pm
P2P Clients: eMule (v0.50b) Beta
Has thanked: 23 times
Been thanked: 150 times

Zombieland: Double Tap (2019) *1080p BluRay* - FGT

Post by lost_rider34 » February 14th 2020 - 1:30 am

Image
https://www.imdb.com/title/tt1560220/
A decade after Zombieland became a hit film and a cult classic, the lead cast (Woody Harrelson, Jesse Eisenberg, Abigail Breslin, and Emma Stone) have reunited with director Ruben Fleischer (Venom) and the original writers Rhett Reese & Paul Wernick (Deadpool) for Zombieland: Double Tap. In the sequel, written by Rhett Reese & Paul Wernick and Dave Callaham, through comic mayhem that stretches from the White House and through the heartland, these four slayers must face off against the many new kinds of zombies that have evolved since the first movie, as well as some new human survivors. But most of all, they have to face the growing pains of their own snarky, makeshift family.

Code: Select all

Video
 ID : 1
 Format : AVC
 Format/Info : Advanced Video Codec
 Format profile : High@L4.1
 Format settings : CABAC / 5 Ref Frames
 Format settings, CABAC : Yes
 Format settings, Reference frames : 5 frames
 Codec ID : V_MPEG4/ISO/AVC
 Duration : 1 h 39 min
 Bit rate : 9 552 kb/s
 Width : 1 920 pixels
 Height : 800 pixels
 Display aspect ratio : 2.40:1
 Frame rate mode : Constant
 Frame rate : 23.976 (24000/1001) FPS
 Color space : YUV
 Chroma subsampling : 4:2:0
 Bit depth : 8 bits
 Scan type : Progressive
 Bits/(Pixel*Frame) : 0.259
 Stream size : 6.61 GiB (78%)
 Title : Zombieland.Double.Tap.2019.1080p.BluRay.x264.DTS-HD.MA.5.1-FGT
 Writing library : x264 core 158 r2988 7817004
 Encoding settings : cabac=1 / ref=5 / deblock=1:-3:-3 / analyse=0x3:0x113 / me=umh / subme=8 / psy=1 / psy_rd=1.00:0.00 / mixed_ref=1 / me_range=16 / chroma_me=1 / trellis=1 / 8x8dct=1 / cqm=0 / deadzone=21,11 / fast_pskip=1 / chroma_qp_offset=-2 / threads=25 / lookahead_threads=4 / sliced_threads=0 / nr=0 / decimate=1 / interlaced=0 / bluray_compat=0 / constrained_intra=0 / bframes=3 / b_pyramid=2 / b_adapt=1 / b_bias=0 / direct=3 / weightb=1 / open_gop=0 / weightp=2 / keyint=250 / keyint_min=23 / scenecut=40 / intra_refresh=0 / rc_lookahead=50 / rc=2pass / mbtree=1 / bitrate=9552 / ratetol=1.0 / qcomp=0.60 / qpmin=0 / qpmax=69 / qpstep=4 / cplxblur=20.0 / qblur=0.5 / ip_ratio=1.40 / aq=1:1.00
 Language : English
 Default : Yes
 Forced : No

 Audio
 ID : 2
 Format : DTS XLL
 Format/Info : Digital Theater Systems
 Commercial name : DTS-HD Master Audio
 Codec ID : A_DTS
 Duration : 1 h 39 min
 Bit rate mode : Variable
 Bit rate : 2 252 kb/s
 Channel(s) : 6 channels
 Channel layout : C L R Ls Rs LFE
 Sampling rate : 48.0 kHz
 Frame rate : 93.750 FPS (512 SPF)
 Bit depth : 16 bits
 Compression mode : Lossless
 Stream size : 1.56 GiB (18%)
 Title : Zombieland.Double.Tap.2019.1080p.BluRay.x264.DTS-HD.MA.5.1-FGT
 Language : English
 Default : Yes
 Forced : No

 Text #1
 ID : 3
 Format : UTF-8
 Codec ID : S_TEXT/UTF8
 Codec ID/Info : UTF-8 Plain Text
 Duration : 28 min 6 s
 Bit rate : 0 b/s
 Count of elements : 7
 Stream size : 157 Bytes (0%)
 Title : English-FORCED-SRT
 Language : English
 Default : Yes
 Forced : Yes

 Text #2
 ID : 4
 Format : UTF-8
 Codec ID : S_TEXT/UTF8
 Codec ID/Info : UTF-8 Plain Text
 Duration : 1 h 38 min
 Bit rate : 78 b/s
 Count of elements : 1709
 Stream size : 56.3 KiB (0%)
 Title : English-SRT
 Language : English
 Default : No
 Forced : No

 Text #3
 ID : 5
 Format : UTF-8
 Codec ID : S_TEXT/UTF8
 Codec ID/Info : UTF-8 Plain Text
 Duration : 1 h 38 min
 Bit rate : 91 b/s
 Count of elements : 2064
 Stream size : 65.7 KiB (0%)
 Title : English-SDH-SRT
 Language : English
 Default : No
 Forced : No

 Text #4
 ID : 6
 Format : PGS
 Muxing mode : zlib
 Codec ID : S_HDMV/PGS
 Codec ID/Info : Picture based subtitle format used on BDs/HD-DVDs
 Duration : 1 h 38 min
 Bit rate : 46.4 kb/s
 Count of elements : 2844
 Stream size : 32.6 MiB (0%)
 Title : English-PGS
 Language : English
 Default : No
 Forced : No

 Text #5
 ID : 7
 Format : PGS
 Muxing mode : zlib
 Codec ID : S_HDMV/PGS
 Codec ID/Info : Picture based subtitle format used on BDs/HD-DVDs
 Duration : 28 min 6 s
 Bit rate : 487 b/s
 Count of elements : 14
 Stream size : 100 KiB (0%)
 Title : English-FORCED-PGS
 Language : English
 Default : No
 Forced : No

 Text #6
 ID : 8
 Format : PGS
 Muxing mode : zlib
 Codec ID : S_HDMV/PGS
 Codec ID/Info : Picture based subtitle format used on BDs/HD-DVDs
 Duration : 1 h 38 min
 Bit rate : 51.9 kb/s
 Count of elements : 3212
 Stream size : 36.5 MiB (0%)
 Title : English-SDH-PGS
 Language : English
 Default : No
 Forced : No

 Text #7
 ID : 9
 Format : PGS
 Muxing mode : zlib
 Codec ID : S_HDMV/PGS
 Codec ID/Info : Picture based subtitle format used on BDs/HD-DVDs
 Duration : 1 h 38 min
 Bit rate : 24.5 kb/s
 Count of elements : 3459
 Stream size : 17.2 MiB (0%)
 Title : Arabic-PGS
 Language : Arabic
 Default : No
 Forced : No

 Text #8
 ID : 10
 Format : PGS
 Muxing mode : zlib
 Codec ID : S_HDMV/PGS
 Codec ID/Info : Picture based subtitle format used on BDs/HD-DVDs
 Duration : 1 h 38 min
 Bit rate : 39.4 kb/s
 Count of elements : 2940
 Stream size : 27.7 MiB (0%)
 Title : Bulgarian-PGS
 Language : Bulgarian
 Default : No
 Forced : No

 Text #9
 ID : 11
 Format : PGS
 Muxing mode : zlib
 Codec ID : S_HDMV/PGS
 Codec ID/Info : Picture based subtitle format used on BDs/HD-DVDs
 Duration : 1 h 38 min
 Bit rate : 37.8 kb/s
 Count of elements : 3429
 Stream size : 26.6 MiB (0%)
 Title : Croatian-PGS
 Language : Croatian
 Default : No
 Forced : No

 Text #10
 ID : 12
 Format : PGS
 Muxing mode : zlib
 Codec ID : S_HDMV/PGS
 Codec ID/Info : Picture based subtitle format used on BDs/HD-DVDs
 Duration : 1 h 38 min
 Bit rate : 42.5 kb/s
 Count of elements : 3369
 Stream size : 29.9 MiB (0%)
 Title : Czech-PGS
 Language : Czech
 Default : No
 Forced : No

 Text #11
 ID : 13
 Format : PGS
 Muxing mode : zlib
 Codec ID : S_HDMV/PGS
 Codec ID/Info : Picture based subtitle format used on BDs/HD-DVDs
 Duration : 1 h 38 min
 Bit rate : 46.2 kb/s
 Count of elements : 2932
 Stream size : 32.5 MiB (0%)
 Title : Greek-PGS
 Language : Greek
 Default : No
 Forced : No

 Text #12
 ID : 14
 Format : PGS
 Muxing mode : zlib
 Codec ID : S_HDMV/PGS
 Codec ID/Info : Picture based subtitle format used on BDs/HD-DVDs
 Duration : 1 h 38 min
 Bit rate : 34.7 kb/s
 Count of elements : 3451
 Stream size : 24.4 MiB (0%)
 Title : Hebrew-PGS
 Language : Hebrew
 Default : No
 Forced : No

 Text #13
 ID : 15
 Format : PGS
 Muxing mode : zlib
 Codec ID : S_HDMV/PGS
 Codec ID/Info : Picture based subtitle format used on BDs/HD-DVDs
 Duration : 1 h 38 min
 Bit rate : 40.7 kb/s
 Count of elements : 2918
 Stream size : 28.6 MiB (0%)
 Title : Hungarian-PGS
 Language : Hungarian
 Default : No
 Forced : No

 Text #14
 ID : 16
 Format : PGS
 Muxing mode : zlib
 Codec ID : S_HDMV/PGS
 Codec ID/Info : Picture based subtitle format used on BDs/HD-DVDs
 Duration : 1 h 38 min
 Bit rate : 41.5 kb/s
 Count of elements : 3154
 Stream size : 29.2 MiB (0%)
 Title : Icelandic-PGS
 Language : Icelandic
 Default : No
 Forced : No

 Text #15
 ID : 17
 Format : PGS
 Muxing mode : zlib
 Codec ID : S_HDMV/PGS
 Codec ID/Info : Picture based subtitle format used on BDs/HD-DVDs
 Duration : 1 h 38 min
 Bit rate : 39.1 kb/s
 Count of elements : 3207
 Stream size : 27.5 MiB (0%)
 Title : Italian-PGS
 Language : Italian
 Default : No
 Forced : No

 Text #16
 ID : 18
 Format : PGS
 Muxing mode : zlib
 Codec ID : S_HDMV/PGS
 Codec ID/Info : Picture based subtitle format used on BDs/HD-DVDs
 Duration : 1 h 38 min
 Bit rate : 37.3 kb/s
 Count of elements : 3309
 Stream size : 26.2 MiB (0%)
 Title : Polish-PGS
 Language : Polish
 Default : No
 Forced : No

 Text #17
 ID : 19
 Format : PGS
 Muxing mode : zlib
 Codec ID : S_HDMV/PGS
 Codec ID/Info : Picture based subtitle format used on BDs/HD-DVDs
 Duration : 1 h 38 min
 Bit rate : 45.7 kb/s
 Count of elements : 3218
 Stream size : 32.1 MiB (0%)
 Title : Portuguese-PGS
 Language : Portuguese
 Default : No
 Forced : No

 Text #18
 ID : 20
 Format : PGS
 Muxing mode : zlib
 Codec ID : S_HDMV/PGS
 Codec ID/Info : Picture based subtitle format used on BDs/HD-DVDs
 Duration : 1 h 38 min
 Bit rate : 42.9 kb/s
 Count of elements : 3129
 Stream size : 30.2 MiB (0%)
 Title : Romanian-PGS
 Language : Romanian
 Default : No
 Forced : No

 Text #19
 ID : 21
 Format : PGS
 Muxing mode : zlib
 Codec ID : S_HDMV/PGS
 Codec ID/Info : Picture based subtitle format used on BDs/HD-DVDs
 Duration : 1 h 38 min
 Bit rate : 42.7 kb/s
 Count of elements : 3467
 Stream size : 30.0 MiB (0%)
 Title : Serbian-PGS
 Language : Serbian
 Default : No
 Forced : No

 Text #20
 ID : 22
 Format : PGS
 Muxing mode : zlib
 Codec ID : S_HDMV/PGS
 Codec ID/Info : Picture based subtitle format used on BDs/HD-DVDs
 Duration : 1 h 38 min
 Bit rate : 33.7 kb/s
 Count of elements : 3464
 Stream size : 23.7 MiB (0%)
 Title : Slovak-PGS
 Language : Slovak
 Default : No
 Forced : No

 Text #21
 ID : 23
 Format : PGS
 Muxing mode : zlib
 Codec ID : S_HDMV/PGS
 Codec ID/Info : Picture based subtitle format used on BDs/HD-DVDs
 Duration : 1 h 38 min
 Bit rate : 35.9 kb/s
 Count of elements : 2682
 Stream size : 25.2 MiB (0%)
 Title : Slovenian-PGS
 Language : Slovenian
 Default : No
 Forced : No

 Text #22
 ID : 24
 Format : PGS
 Muxing mode : zlib
 Codec ID : S_HDMV/PGS
 Codec ID/Info : Picture based subtitle format used on BDs/HD-DVDs
 Duration : 1 h 38 min
 Bit rate : 47.7 kb/s
 Count of elements : 3465
 Stream size : 33.5 MiB (0%)
 Title : Turkish-PGS
 Language : Turkish
 Default : No
 Forced : No

 Menu
 00:00:00.000 : en:Chapter 01
 00:05:01.092 : en:Chapter 02
 00:11:07.917 : en:Chapter 03
 00:15:24.506 : en:Chapter 04
 00:21:16.066 : en:Chapter 05
 00:29:15.545 : en:Chapter 06
 00:36:55.421 : en:Chapter 07
 00:44:02.806 : en:Chapter 08
 00:50:12.634 : en:Chapter 09
 00:57:52.510 : en:Chapter 10
 01:03:51.702 : en:Chapter 11
 01:06:49.755 : en:Chapter 12
 01:10:12.082 : en:Chapter 13
 01:15:40.452 : en:Chapter 14
 01:23:45.311 : en:Chapter 15
 01:29:48.216 : en:Chapter 16
Image Image
Image Image


LINKS:

Zombieland.Double.Tap.2019.1080p.BluRay.x264.DTS-HD.MA.5.1-FGT.mkv  [8.43 Gb]
Image

Post Reply

Return to “HD Quality”