Hustlers (2019) *1080p BluRay* - FGT

Release forum for : 720p, 1080i and 1080p.
Note: Please be aware of the technical requirements before posting in this section.

Moderator: unusual

Forum rules
Board rules & regulations

***Only movie releases with an horizontal resolution above 960pixels will be accepted in this section***
Post Reply
User avatar
lost_rider34
Phantom
Phantom
Posts: 568
Joined: October 1st 2009 - 6:36 pm
P2P Clients: eMule (v0.50b) Beta
Has thanked: 23 times
Been thanked: 150 times

Hustlers (2019) *1080p BluRay* - FGT

Post by lost_rider34 » February 14th 2020 - 1:29 am

Image
https://www.imdb.com/title/tt5503686/
Hustlers follows a crew of savvy former strip club employees who band together to turn the tables on their Wall Street clients.

Code: Select all

Video
 ID : 1
 Format : AVC
 Format/Info : Advanced Video Codec
 Format profile : High@L4.1
 Format settings : CABAC / 5 Ref Frames
 Format settings, CABAC : Yes
 Format settings, Reference frames : 5 frames
 Codec ID : V_MPEG4/ISO/AVC
 Duration : 1 h 50 min
 Bit rate : 9 302 kb/s
 Width : 1 920 pixels
 Height : 808 pixels
 Display aspect ratio : 2.40:1
 Frame rate mode : Constant
 Frame rate : 23.976 (24000/1001) FPS
 Color space : YUV
 Chroma subsampling : 4:2:0
 Bit depth : 8 bits
 Scan type : Progressive
 Bits/(Pixel*Frame) : 0.250
 Stream size : 7.15 GiB (69%)
 Title : Hustlers.2019.1080p.BluRay.x264.TrueHD.7.1.Atmos-FGT
 Writing library : x264 core 157 r2969 d4099dd
 Encoding settings : cabac=1 / ref=5 / deblock=1:0:0 / analyse=0x3:0x113 / me=umh / subme=8 / psy=1 / psy_rd=1.00:0.00 / mixed_ref=1 / me_range=16 / chroma_me=1 / trellis=1 / 8x8dct=1 / cqm=0 / deadzone=21,11 / fast_pskip=1 / chroma_qp_offset=-2 / threads=16 / lookahead_threads=2 / sliced_threads=0 / nr=0 / decimate=1 / interlaced=0 / bluray_compat=0 / constrained_intra=0 / bframes=3 / b_pyramid=2 / b_adapt=2 / b_bias=0 / direct=3 / weightb=1 / open_gop=0 / weightp=2 / keyint=240 / keyint_min=23 / scenecut=40 / intra_refresh=0 / rc_lookahead=50 / rc=2pass / mbtree=1 / bitrate=9302 / ratetol=1.0 / qcomp=0.60 / qpmin=0 / qpmax=69 / qpstep=4 / cplxblur=20.0 / qblur=0.5 / ip_ratio=1.40 / aq=1:1.00
 Language : English
 Default : Yes
 Forced : No

 Audio #1
 ID : 2
 Format : MLP FBA 16-ch
 Format/Info : Meridian Lossless Packing FBA with 16-channel presentation
 Commercial name : Dolby TrueHD with Dolby Atmos
 Codec ID : A_TRUEHD
 Duration : 1 h 50 min
 Bit rate mode : Variable
 Bit rate : 3 545 kb/s
 Maximum bit rate : 5 826 kb/s
 Channel(s) : 8 channels
 Channel layout : L R C LFE Ls Rs Lb Rb
 Sampling rate : 48.0 kHz
 Frame rate : 1 200.000 FPS (40 SPF)
 Compression mode : Lossless
 Stream size : 2.73 GiB (26%)
 Title : Hustlers.2019.1080p.BluRay.x264.TrueHD.7.1.Atmos-FGT
 Language : English
 Default : Yes
 Forced : No
 Number of dynamic objects : 11
 Bed channel count : 1 channel
 Bed channel configuration : LFE

 Audio #2
 ID : 3
 Format : AC-3
 Format/Info : Audio Coding 3
 Commercial name : Dolby Digital
 Codec ID : A_AC3
 Duration : 1 h 50 min
 Bit rate mode : Constant
 Bit rate : 448 kb/s
 Channel(s) : 6 channels
 Channel layout : L R C LFE Ls Rs
 Sampling rate : 48.0 kHz
 Frame rate : 31.250 FPS (1536 SPF)
 Bit depth : 16 bits
 Compression mode : Lossy
 Stream size : 353 MiB (3%)
 Title : Hustlers.2019.1080p.BluRay.x264.TrueHD.7.1.Atmos-FGT
 Language : English
 Service kind : Complete Main
 Default : No
 Forced : No

 Text #1
 ID : 4
 Format : UTF-8
 Codec ID : S_TEXT/UTF8
 Codec ID/Info : UTF-8 Plain Text
 Duration : 1 h 43 min
 Bit rate : 77 b/s
 Count of elements : 1851
 Stream size : 58.6 KiB (0%)
 Title : English-SRT
 Language : English
 Default : Yes
 Forced : No

 Text #2
 ID : 5
 Format : PGS
 Muxing mode : zlib
 Codec ID : S_HDMV/PGS
 Codec ID/Info : Picture based subtitle format used on BDs/HD-DVDs
 Duration : 1 h 49 min
 Bit rate : 59.7 kb/s
 Count of elements : 4042
 Stream size : 46.6 MiB (0%)
 Title : English-PGS
 Language : English
 Default : No
 Forced : No

 Text #3
 ID : 6
 Format : PGS
 Muxing mode : zlib
 Codec ID : S_HDMV/PGS
 Codec ID/Info : Picture based subtitle format used on BDs/HD-DVDs
 Duration : 1 h 49 min
 Bit rate : 40.5 kb/s
 Count of elements : 3322
 Stream size : 31.6 MiB (0%)
 Title : Spanish-PGS
 Language : Spanish
 Default : No
 Forced : No

 Menu
 00:00:00.000 : en:Chapter 01
 00:05:09.017 : en:Chapter 02
 00:11:19.804 : en:Chapter 03
 00:15:04.820 : en:Chapter 04
 00:21:22.823 : en:Chapter 05
 00:24:47.736 : en:Chapter 06
 00:30:46.010 : en:Chapter 07
 00:35:16.697 : en:Chapter 08
 00:40:44.066 : en:Chapter 09
 00:45:31.979 : en:Chapter 10
 00:52:58.842 : en:Chapter 11
 01:00:36.758 : en:Chapter 12
 01:04:27.697 : en:Chapter 13
 01:10:08.037 : en:Chapter 14
 01:15:02.581 : en:Chapter 15
 01:20:53.723 : en:Chapter 16
 01:27:47.762 : en:Chapter 17
 01:32:23.329 : en:Chapter 18
 01:37:27.466 : en:Chapter 19
 01:42:29.685 : en:Chapter 20
Image Image
Image Image
Image Image


LINKS:

Hustlers.2019.1080p.BluRay.x264.DTS-HD.MA.7.1-FGT.mkv  [10.23 Gb]
Image

Post Reply

Return to “HD Quality”