Paradise Hills (2019) *1080p BluRay* - FGT

Release forum for : 720p, 1080i and 1080p.
Note: Please be aware of the technical requirements before posting in this section.

Moderator: unusual

Forum rules
Board rules & regulations

***Only movie releases with an horizontal resolution above 960pixels will be accepted in this section***
Post Reply
User avatar
lost_rider34
Phantom
Phantom
Posts: 568
Joined: October 1st 2009 - 6:36 pm
P2P Clients: eMule (v0.50b) Beta
Has thanked: 23 times
Been thanked: 150 times

Paradise Hills (2019) *1080p BluRay* - FGT

Post by lost_rider34 » February 14th 2020 - 1:27 am

Image
https://www.imdb.com/title/tt6127004/
On an isolated island, Uma (Emma Roberts) wakes up to find herself at Paradise Hills, a facility where high-class families send their daughters to become perfect versions of themselves. The facility is run by the mysterious Duchess (Milla Jovovich) where calibrated treatments including etiquette classes, vocal lessons, beauty treatments, gymnastics and restricted diets, revolve all physical and emotional shortcomings within two months. The outspoken Uma finds solace and friendship in other Paradise Hills residents -- Chloe (Danielle McDonald), Yu (Awkwafina) and Mexican popstar Amarna (Eiza Gonzalez). Uma soon realizes that lurking behind all this beauty is a sinister secret. It's a race against the clock as Uma and her friends try to escape Paradise Hills before it consumes them all.

Code: Select all

Video
 ID : 1
 Format : AVC
 Format/Info : Advanced Video Codec
 Format profile : High@L4.1
 Format settings : CABAC / 4 Ref Frames
 Format settings, CABAC : Yes
 Format settings, Reference frames : 4 frames
 Codec ID : V_MPEG4/ISO/AVC
 Duration : 1 h 34 min
 Bit rate : 9 284 kb/s
 Width : 1 920 pixels
 Height : 960 pixels
 Display aspect ratio : 2.000
 Frame rate mode : Constant
 Frame rate : 23.976 (24000/1001) FPS
 Color space : YUV
 Chroma subsampling : 4:2:0
 Bit depth : 8 bits
 Scan type : Progressive
 Bits/(Pixel*Frame) : 0.210
 Stream size : 6.13 GiB (73%)
 Title : Paradise.Hills.2019.1080p.BluRay.x264.TrueHD.5.1-FGT
 Writing library : x264 core 158 r2988 7817004
 Encoding settings : cabac=1 / ref=4 / deblock=1:-3:-3 / analyse=0x3:0x133 / me=umh / subme=8 / psy=1 / psy_rd=1.00:0.00 / mixed_ref=1 / me_range=16 / chroma_me=1 / trellis=1 / 8x8dct=1 / cqm=0 / deadzone=21,11 / fast_pskip=0 / chroma_qp_offset=-2 / threads=30 / lookahead_threads=5 / sliced_threads=0 / nr=0 / decimate=1 / interlaced=0 / bluray_compat=0 / constrained_intra=0 / bframes=3 / b_pyramid=2 / b_adapt=1 / b_bias=0 / direct=3 / weightb=1 / open_gop=0 / weightp=2 / keyint=250 / keyint_min=23 / scenecut=40 / intra_refresh=0 / rc_lookahead=50 / rc=2pass / mbtree=1 / bitrate=9284 / ratetol=1.0 / qcomp=0.60 / qpmin=0 / qpmax=69 / qpstep=4 / cplxblur=20.0 / qblur=0.5 / vbv_maxrate=62500 / vbv_bufsize=78125 / nal_hrd=none / filler=0 / ip_ratio=1.40 / aq=1:1.00
 Default : Yes
 Forced : No

 Audio #1
 ID : 2
 Format : MLP FBA
 Format/Info : Meridian Lossless Packing FBA
 Commercial name : Dolby TrueHD
 Codec ID : A_TRUEHD
 Duration : 1 h 34 min
 Bit rate mode : Variable
 Bit rate : 2 754 kb/s
 Maximum bit rate : 4 710 kb/s
 Channel(s) : 6 channels
 Channel layout : L R C LFE Ls Rs
 Sampling rate : 96.0 kHz
 Frame rate : 1 200.000 FPS (80 SPF)
 Compression mode : Lossless
 Stream size : 1.82 GiB (22%)
 Title : Paradise.Hills.2019.1080p.BluRay.x264.TrueHD.5.1-FGT
 Language : English
 Default : Yes
 Forced : No

 Audio #2
 ID : 3
 Format : AC-3
 Format/Info : Audio Coding 3
 Commercial name : Dolby Digital
 Codec ID : A_AC3
 Duration : 1 h 34 min
 Bit rate mode : Constant
 Bit rate : 640 kb/s
 Channel(s) : 6 channels
 Channel layout : L R C LFE Ls Rs
 Sampling rate : 48.0 kHz
 Frame rate : 31.250 FPS (1536 SPF)
 Bit depth : 16 bits
 Compression mode : Lossy
 Stream size : 433 MiB (5%)
 Title : Paradise.Hills.2019.1080p.BluRay.x264.TrueHD.5.1-FGT
 Language : English
 Service kind : Complete Main
 Default : No
 Forced : No

 Text #1
 ID : 4
 Format : UTF-8
 Codec ID : S_TEXT/UTF8
 Codec ID/Info : UTF-8 Plain Text
 Duration : 1 h 28 min
 Bit rate : 40 b/s
 Count of elements : 964
 Stream size : 26.3 KiB (0%)
 Title : English-SRT
 Language : English
 Default : Yes
 Forced : No

 Text #2
 ID : 5
 Format : PGS
 Muxing mode : zlib
 Codec ID : S_HDMV/PGS
 Codec ID/Info : Picture based subtitle format used on BDs/HD-DVDs
 Duration : 1 h 28 min
 Bit rate : 31.6 kb/s
 Count of elements : 1896
 Stream size : 19.9 MiB (0%)
 Title : English-PGS
 Language : English
 Default : No
 Forced : No

 Text #3
 ID : 6
 Format : PGS
 Muxing mode : zlib
 Codec ID : S_HDMV/PGS
 Codec ID/Info : Picture based subtitle format used on BDs/HD-DVDs
 Duration : 1 h 28 min
 Bit rate : 25.3 kb/s
 Count of elements : 1914
 Stream size : 16.1 MiB (0%)
 Title : Chinese-PGS
 Language : Chinese
 Default : No
 Forced : No

 Menu
 00:00:00.000 : en:Chapter 01
 00:08:11.824 : en:Chapter 02
 00:15:35.017 : en:Chapter 03
 00:24:04.526 : en:Chapter 04
 00:31:02.986 : en:Chapter 05
 00:39:12.600 : en:Chapter 06
 00:46:48.806 : en:Chapter 07
 00:56:15.705 : en:Chapter 08
 01:03:43.945 : en:Chapter 09
 01:09:15.317 : en:Chapter 10
 01:16:38.677 : en:Chapter 11
 01:25:29.958 : en:Chapter 12
Image Image
Image Image
Image Image


LINKS:

Paradise.Hills.2019.1080p.BluRay.x264.TrueHD.5.1-FGT.mkv  [8.43 Gb]
Image

Post Reply

Return to “HD Quality”