Ad Astra (2019) *1080p BluRay* - FGT

Release forum for : 720p, 1080i and 1080p.
Note: Please be aware of the technical requirements before posting in this section.

Moderator: unusual

Forum rules
Board rules & regulations

***Only movie releases with an horizontal resolution above 960pixels will be accepted in this section***
Post Reply
User avatar
lost_rider34
Phantom
Phantom
Posts: 568
Joined: October 1st 2009 - 6:36 pm
P2P Clients: eMule (v0.50b) Beta
Has thanked: 23 times
Been thanked: 150 times

Ad Astra (2019) *1080p BluRay* - FGT

Post by lost_rider34 » February 14th 2020 - 1:22 am

Image
https://www.imdb.com/title/tt2935510/

Astronaut Roy McBride (Brad Pitt) travels to the outer edges of the solar system to find his missing father and unravel a mystery that threatens the survival of our planet. His journey will uncover secrets that challenge the nature of human existence and our place in the cosmos.

Code: Select all

Video
 ID : 1
 Format : AVC
 Format/Info : Advanced Video Codec
 Format profile : High@L4.1
 Format settings : CABAC / 5 Ref Frames
 Format settings, CABAC : Yes
 Format settings, Reference frames : 5 frames
 Codec ID : V_MPEG4/ISO/AVC
 Duration : 2 h 3 min
 Bit rate : 8 654 kb/s
 Width : 1 920 pixels
 Height : 808 pixels
 Display aspect ratio : 2.40:1
 Frame rate mode : Constant
 Frame rate : 23.976 (24000/1001) FPS
 Color space : YUV
 Chroma subsampling : 4:2:0
 Bit depth : 8 bits
 Scan type : Progressive
 Bits/(Pixel*Frame) : 0.233
 Stream size : 7.43 GiB (67%)
 Title : Ad.Astra.2019.1080p.BluRay.x264.TrueHD.7.1.Atmos-FGT
 Writing library : x264 core 157 r2969 d4099dd
 Encoding settings : cabac=1 / ref=5 / deblock=1:0:0 / analyse=0x3:0x113 / me=umh / subme=8 / psy=1 / psy_rd=1.00:0.00 / mixed_ref=1 / me_range=16 / chroma_me=1 / trellis=1 / 8x8dct=1 / cqm=0 / deadzone=21,11 / fast_pskip=1 / chroma_qp_offset=-2 / threads=16 / lookahead_threads=2 / sliced_threads=0 / nr=0 / decimate=1 / interlaced=0 / bluray_compat=0 / constrained_intra=0 / bframes=3 / b_pyramid=2 / b_adapt=2 / b_bias=0 / direct=3 / weightb=1 / open_gop=0 / weightp=2 / keyint=240 / keyint_min=23 / scenecut=40 / intra_refresh=0 / rc_lookahead=50 / rc=2pass / mbtree=1 / bitrate=8654 / ratetol=1.0 / qcomp=0.60 / qpmin=0 / qpmax=69 / qpstep=4 / cplxblur=20.0 / qblur=0.5 / ip_ratio=1.40 / aq=1:1.00
 Default : Yes
 Forced : No

 Audio #1
 ID : 2
 Format : MLP FBA 16-ch
 Format/Info : Meridian Lossless Packing FBA with 16-channel presentation
 Commercial name : Dolby TrueHD with Dolby Atmos
 Codec ID : A_TRUEHD
 Duration : 2 h 3 min
 Bit rate mode : Variable
 Bit rate : 3 388 kb/s
 Maximum bit rate : 6 165 kb/s
 Channel(s) : 8 channels
 Channel layout : L R C LFE Ls Rs Lb Rb
 Sampling rate : 48.0 kHz
 Frame rate : 1 200.000 FPS (40 SPF)
 Compression mode : Lossless
 Stream size : 2.91 GiB (26%)
 Title : Ad.Astra.2019.1080p.BluRay.x264.TrueHD.7.1.Atmos-FGT
 Language : English
 Default : Yes
 Forced : No
 Number of dynamic objects : 13
 Bed channel count : 1 channel
 Bed channel configuration : LFE

 Audio #2
 ID : 3
 Format : AC-3
 Format/Info : Audio Coding 3
 Commercial name : Dolby Digital
 Codec ID : A_AC3
 Duration : 2 h 3 min
 Bit rate mode : Constant
 Bit rate : 640 kb/s
 Channel(s) : 6 channels
 Channel layout : L R C LFE Ls Rs
 Sampling rate : 48.0 kHz
 Frame rate : 31.250 FPS (1536 SPF)
 Bit depth : 16 bits
 Compression mode : Lossy
 Stream size : 563 MiB (5%)
 Title : Ad.Astra.2019.1080p.BluRay.x264.TrueHD.7.1.Atmos-FGT
 Language : English
 Service kind : Complete Main
 Default : No
 Forced : No

 Text #1
 ID : 4
 Format : UTF-8
 Codec ID : S_TEXT/UTF8
 Codec ID/Info : UTF-8 Plain Text
 Duration : 1 h 50 min
 Bit rate : 50 b/s
 Count of elements : 1389
 Stream size : 41.1 KiB (0%)
 Title : English-SRT
 Language : English
 Default : Yes
 Forced : No

 Text #2
 ID : 5
 Format : PGS
 Muxing mode : zlib
 Codec ID : S_HDMV/PGS
 Codec ID/Info : Picture based subtitle format used on BDs/HD-DVDs
 Duration : 1 h 50 min
 Bit rate : 36.0 kb/s
 Count of elements : 2786
 Stream size : 28.5 MiB (0%)
 Title : English-PGS
 Language : English
 Default : No
 Forced : No

 Text #3
 ID : 6
 Format : PGS
 Muxing mode : zlib
 Codec ID : S_HDMV/PGS
 Codec ID/Info : Picture based subtitle format used on BDs/HD-DVDs
 Duration : 2 h 2 min
 Bit rate : 22.6 kb/s
 Count of elements : 2154
 Stream size : 19.7 MiB (0%)
 Title : Czech-PGS
 Language : Czech
 Default : No
 Forced : No

 Text #4
 ID : 7
 Format : PGS
 Muxing mode : zlib
 Codec ID : S_HDMV/PGS
 Codec ID/Info : Picture based subtitle format used on BDs/HD-DVDs
 Duration : 2 h 1 min
 Bit rate : 22.8 kb/s
 Count of elements : 1706
 Stream size : 19.9 MiB (0%)
 Title : Danish-PGS
 Language : Danish
 Default : No
 Forced : No

 Text #5
 ID : 8
 Format : PGS
 Muxing mode : zlib
 Codec ID : S_HDMV/PGS
 Codec ID/Info : Picture based subtitle format used on BDs/HD-DVDs
 Duration : 2 h 1 min
 Bit rate : 21.8 kb/s
 Count of elements : 1876
 Stream size : 19.0 MiB (0%)
 Title : Dutch-PGS
 Language : Dutch
 Default : No
 Forced : No

 Text #6
 ID : 9
 Format : PGS
 Muxing mode : zlib
 Codec ID : S_HDMV/PGS
 Codec ID/Info : Picture based subtitle format used on BDs/HD-DVDs
 Duration : 2 h 2 min
 Bit rate : 24.2 kb/s
 Count of elements : 2156
 Stream size : 21.2 MiB (0%)
 Title : Finnish-PGS
 Language : Finnish
 Default : No
 Forced : No

 Text #7
 ID : 10
 Format : PGS
 Muxing mode : zlib
 Codec ID : S_HDMV/PGS
 Codec ID/Info : Picture based subtitle format used on BDs/HD-DVDs
 Duration : 2 h 2 min
 Bit rate : 23.9 kb/s
 Count of elements : 2264
 Stream size : 20.9 MiB (0%)
 Title : French-PGS
 Language : French
 Default : No
 Forced : No

 Text #8
 ID : 11
 Format : PGS
 Muxing mode : zlib
 Codec ID : S_HDMV/PGS
 Codec ID/Info : Picture based subtitle format used on BDs/HD-DVDs
 Duration : 2 h 1 min
 Bit rate : 28.5 kb/s
 Count of elements : 2298
 Stream size : 24.8 MiB (0%)
 Title : German-PGS
 Language : German
 Default : No
 Forced : No

 Text #9
 ID : 12
 Format : PGS
 Muxing mode : zlib
 Codec ID : S_HDMV/PGS
 Codec ID/Info : Picture based subtitle format used on BDs/HD-DVDs
 Duration : 2 h 2 min
 Bit rate : 26.5 kb/s
 Count of elements : 2148
 Stream size : 23.2 MiB (0%)
 Title : Hungarian-PGS
 Language : Hungarian
 Default : No
 Forced : No

 Text #10
 ID : 13
 Format : PGS
 Muxing mode : zlib
 Codec ID : S_HDMV/PGS
 Codec ID/Info : Picture based subtitle format used on BDs/HD-DVDs
 Duration : 2 h 2 min
 Bit rate : 26.6 kb/s
 Count of elements : 2146
 Stream size : 23.3 MiB (0%)
 Title : Italian-PGS
 Language : Italian
 Default : No
 Forced : No

 Text #11
 ID : 14
 Format : PGS
 Muxing mode : zlib
 Codec ID : S_HDMV/PGS
 Codec ID/Info : Picture based subtitle format used on BDs/HD-DVDs
 Duration : 2 h 2 min
 Bit rate : 16.8 kb/s
 Count of elements : 2105
 Stream size : 14.7 MiB (0%)
 Title : Japanese-PGS
 Language : Japanese
 Default : No
 Forced : No

 Text #12
 ID : 15
 Format : PGS
 Muxing mode : zlib
 Codec ID : S_HDMV/PGS
 Codec ID/Info : Picture based subtitle format used on BDs/HD-DVDs
 Duration : 2 h 1 min
 Bit rate : 16.5 kb/s
 Count of elements : 2152
 Stream size : 14.4 MiB (0%)
 Title : Korean-PGS
 Language : Korean
 Default : No
 Forced : No

 Text #13
 ID : 16
 Format : PGS
 Muxing mode : zlib
 Codec ID : S_HDMV/PGS
 Codec ID/Info : Picture based subtitle format used on BDs/HD-DVDs
 Duration : 2 h 2 min
 Bit rate : 25.6 kb/s
 Count of elements : 2154
 Stream size : 22.3 MiB (0%)
 Title : Norwegian-PGS
 Language : Norwegian
 Default : No
 Forced : No

 Text #14
 ID : 17
 Format : PGS
 Muxing mode : zlib
 Codec ID : S_HDMV/PGS
 Codec ID/Info : Picture based subtitle format used on BDs/HD-DVDs
 Duration : 2 h 2 min
 Bit rate : 23.9 kb/s
 Count of elements : 2084
 Stream size : 20.9 MiB (0%)
 Title : Polish-PGS
 Language : Polish
 Default : No
 Forced : No

 Text #15
 ID : 18
 Format : PGS
 Muxing mode : zlib
 Codec ID : S_HDMV/PGS
 Codec ID/Info : Picture based subtitle format used on BDs/HD-DVDs
 Duration : 2 h 1 min
 Bit rate : 25.7 kb/s
 Count of elements : 2186
 Stream size : 22.4 MiB (0%)
 Title : Spanish-PGS
 Language : Spanish
 Default : No
 Forced : No

 Text #16
 ID : 19
 Format : PGS
 Muxing mode : zlib
 Codec ID : S_HDMV/PGS
 Codec ID/Info : Picture based subtitle format used on BDs/HD-DVDs
 Duration : 2 h 2 min
 Bit rate : 25.2 kb/s
 Count of elements : 2106
 Stream size : 22.0 MiB (0%)
 Title : Spanish-PGS
 Language : Spanish
 Default : No
 Forced : No

 Text #17
 ID : 20
 Format : PGS
 Muxing mode : zlib
 Codec ID : S_HDMV/PGS
 Codec ID/Info : Picture based subtitle format used on BDs/HD-DVDs
 Duration : 2 h 1 min
 Bit rate : 25.3 kb/s
 Count of elements : 2146
 Stream size : 22.0 MiB (0%)
 Title : Swedish-PGS
 Language : Swedish
 Default : No
 Forced : No

 Menu
 00:00:00.000 : en:Chapter 01
 00:04:22.679 : en:Chapter 02
 00:08:48.695 : en:Chapter 03
 00:16:25.776 : en:Chapter 04
 00:22:33.811 : en:Chapter 05
 00:30:08.515 : en:Chapter 06
 00:35:08.273 : en:Chapter 07
 00:40:33.348 : en:Chapter 08
 00:44:45.391 : en:Chapter 09
 00:48:56.809 : en:Chapter 10
 00:53:51.812 : en:Chapter 11
 00:56:43.775 : en:Chapter 12
 01:01:31.897 : en:Chapter 13
 01:07:23.873 : en:Chapter 14
 01:12:12.411 : en:Chapter 15
 01:16:59.114 : en:Chapter 16
 01:21:35.182 : en:Chapter 17
 01:24:42.661 : en:Chapter 18
 01:31:16.554 : en:Chapter 19
 01:36:27.031 : en:Chapter 20
 01:40:59.595 : en:Chapter 21
 01:46:26.589 : en:Chapter 22
 01:50:00.052 : en:Chapter 23
 01:53:17.791 : en:Chapter 24
Image Image
Image Image
Image Image


LINKS:

Ad.Astra.2019.1080p.BluRay.x264.TrueHD.7.1.Atmos-FGT.mkv  [11.06 Gb]
Image

Post Reply

Return to “HD Quality”