Shaft (2019) [REMUX] *1080p BluRay* - FGT

Release forum for : 720p, 1080i and 1080p.
Note: Please be aware of the technical requirements before posting in this section.

Moderator: unusual

Forum rules
Board rules & regulations

***Only movie releases with an horizontal resolution above 960pixels will be accepted in this section***
Post Reply
User avatar
lost_rider34
Phantom
Phantom
Posts: 568
Joined: October 1st 2009 - 6:36 pm
P2P Clients: eMule (v0.50b) Beta
Has thanked: 23 times
Been thanked: 150 times

Shaft (2019) [REMUX] *1080p BluRay* - FGT

Post by lost_rider34 » February 14th 2020 - 1:19 am

Image
https://www.imdb.com/title/tt4463894/
"Shaft" is the next chapter in the film franchise featuring the coolest private eye on any New York City block. JJ, aka John Shaft Jr. (Usher), may be a cyber security expert with a degree from MIT, but to uncover the truth behind his best friend's untimely death, he needs an education only his dad can provide. Absent throughout JJ's youth, the legendary locked-and-loaded John Shaft (Jackson) agrees to help his progeny navigate Harlem's heroin-infested underbelly. And while JJ's own FBI analyst's badge may clash with his dad's trademark leather coat, there's no denying family. Besides, Shaft's got an agenda of his own, and a score to settle that's professional and personal.

Code: Select all

Video
 ID : 1
 Format : AVC
 Format/Info : Advanced Video Codec
 Format profile : High@L4.1
 Format settings : CABAC / 4 Ref Frames
 Format settings, CABAC : Yes
 Format settings, Reference frames : 4 frames
 Codec ID : V_MPEG4/ISO/AVC
 Duration : 1 h 51 min
 Bit rate mode : Variable
 Bit rate : 29.1 Mb/s
 Maximum bit rate : 31.5 Mb/s
 Width : 1 920 pixels
 Height : 1 080 pixels
 Display aspect ratio : 16:9
 Frame rate mode : Constant
 Frame rate : 23.976 (24000/1001) FPS
 Color space : YUV
 Chroma subsampling : 4:2:0
 Bit depth : 8 bits
 Scan type : Progressive
 Bits/(Pixel*Frame) : 0.586
 Stream size : 22.7 GiB (74%)
 Title : Shaft.2019.1080p.BluRay.REMUX.AVC.DTS-HD.MA.TrueHD.7.1.Atmos-FGT
 Language : English
 Default : No
 Forced : No

 Audio #1
 ID : 2
 Format : MLP FBA 16-ch
 Format/Info : Meridian Lossless Packing FBA with 16-channel presentation
 Commercial name : Dolby TrueHD with Dolby Atmos
 Codec ID : A_TRUEHD
 Duration : 1 h 51 min
 Bit rate mode : Variable
 Bit rate : 3 622 kb/s
 Maximum bit rate : 6 336 kb/s
 Channel(s) : 8 channels
 Channel layout : L R C LFE Ls Rs Lb Rb
 Sampling rate : 48.0 kHz
 Frame rate : 1 200.000 FPS (40 SPF)
 Compression mode : Lossless
 Stream size : 2.82 GiB (9%)
 Title : Shaft.2019.1080p.BluRay.REMUX.AVC.DTS-HD.MA.TrueHD.7.1.Atmos-FGT
 Language : English
 Default : Yes
 Forced : No
 Number of dynamic objects : 15
 Bed channel count : 1 channel
 Bed channel configuration : LFE

 Audio #2
 ID : 3
 Format : DTS XLL
 Format/Info : Digital Theater Systems
 Commercial name : DTS-HD Master Audio
 Codec ID : A_DTS
 Duration : 1 h 51 min
 Bit rate mode : Variable
 Bit rate : 4 027 kb/s
 Channel(s) : 8 channels
 Channel layout : C L R LFE Lb Rb Lss Rss
 Sampling rate : 48.0 kHz
 Frame rate : 93.750 FPS (512 SPF)
 Bit depth : 24 bits
 Compression mode : Lossless
 Stream size : 3.14 GiB (10%)
 Title : Shaft.2019.1080p.BluRay.REMUX.AVC.DTS-HD.MA.TrueHD.7.1.Atmos-FGT
 Language : English
 Default : No
 Forced : No

 Audio #3
 ID : 4
 Format : AC-3
 Format/Info : Audio Coding 3
 Commercial name : Dolby Digital
 Codec ID : A_AC3
 Duration : 1 h 51 min
 Bit rate mode : Constant
 Bit rate : 640 kb/s
 Channel(s) : 6 channels
 Channel layout : L R C LFE Ls Rs
 Sampling rate : 48.0 kHz
 Frame rate : 31.250 FPS (1536 SPF)
 Bit depth : 16 bits
 Compression mode : Lossy
 Stream size : 511 MiB (2%)
 Title : Shaft.2019.1080p.BluRay.REMUX.AVC.DTS-HD.MA.TrueHD.7.1.Atmos-FGT
 Language : English
 Service kind : Complete Main
 Default : No
 Forced : No

 Audio #4
 ID : 5
 Format : AC-3
 Format/Info : Audio Coding 3
 Commercial name : Dolby Digital
 Codec ID : A_AC3
 Duration : 1 h 51 min
 Bit rate mode : Constant
 Bit rate : 640 kb/s
 Channel(s) : 6 channels
 Channel layout : L R C LFE Ls Rs
 Sampling rate : 48.0 kHz
 Frame rate : 31.250 FPS (1536 SPF)
 Bit depth : 16 bits
 Compression mode : Lossy
 Stream size : 511 MiB (2%)
 Title : Shaft.2019.1080p.BluRay.REMUX.AVC.DTS-HD.MA.TrueHD.7.1.Atmos-FGT
 Language : Spanish
 Service kind : Complete Main
 Default : No
 Forced : No

 Audio #5
 ID : 6
 Format : AC-3
 Format/Info : Audio Coding 3
 Commercial name : Dolby Digital
 Codec ID : A_AC3
 Duration : 1 h 51 min
 Bit rate mode : Constant
 Bit rate : 640 kb/s
 Channel(s) : 6 channels
 Channel layout : L R C LFE Ls Rs
 Sampling rate : 48.0 kHz
 Frame rate : 31.250 FPS (1536 SPF)
 Bit depth : 16 bits
 Compression mode : Lossy
 Stream size : 511 MiB (2%)
 Title : Shaft.2019.1080p.BluRay.REMUX.AVC.DTS-HD.MA.TrueHD.7.1.Atmos-FGT
 Language : English
 Service kind : Complete Main
 Default : No
 Forced : No

 Audio #6
 ID : 7
 Format : AC-3
 Format/Info : Audio Coding 3
 Commercial name : Dolby Digital
 Codec ID : A_AC3
 Duration : 1 h 51 min
 Bit rate mode : Constant
 Bit rate : 640 kb/s
 Channel(s) : 6 channels
 Channel layout : L R C LFE Ls Rs
 Sampling rate : 48.0 kHz
 Frame rate : 31.250 FPS (1536 SPF)
 Bit depth : 16 bits
 Compression mode : Lossy
 Stream size : 511 MiB (2%)
 Title : Shaft.2019.1080p.BluRay.REMUX.AVC.DTS-HD.MA.TrueHD.7.1.Atmos-FGT
 Language : English
 Service kind : Complete Main
 Default : No
 Forced : No

 Text #1
 ID : 8
 Format : UTF-8
 Codec ID : S_TEXT/UTF8
 Codec ID/Info : UTF-8 Plain Text
 Duration : 1 h 45 min
 Bit rate : 79 b/s
 Count of elements : 2020
 Stream size : 61.5 KiB (0%)
 Title : English-SRT
 Language : English
 Default : Yes
 Forced : No

 Text #2
 ID : 9
 Format : PGS
 Muxing mode : zlib
 Codec ID : S_HDMV/PGS
 Codec ID/Info : Picture based subtitle format used on BDs/HD-DVDs
 Duration : 1 h 46 min
 Bit rate : 52.1 kb/s
 Count of elements : 4358
 Stream size : 39.8 MiB (0%)
 Title : English-PGS
 Language : English
 Default : No
 Forced : No

 Text #3
 ID : 10
 Format : PGS
 Muxing mode : zlib
 Codec ID : S_HDMV/PGS
 Codec ID/Info : Picture based subtitle format used on BDs/HD-DVDs
 Duration : 1 h 50 min
 Bit rate : 40.1 kb/s
 Count of elements : 3912
 Stream size : 31.7 MiB (0%)
 Title : French-PGS
 Language : French
 Default : No
 Forced : No

 Text #4
 ID : 11
 Format : PGS
 Muxing mode : zlib
 Codec ID : S_HDMV/PGS
 Codec ID/Info : Picture based subtitle format used on BDs/HD-DVDs
 Duration : 1 h 50 min
 Bit rate : 45.4 kb/s
 Count of elements : 3888
 Stream size : 35.8 MiB (0%)
 Title : Spanish-PGS
 Language : Spanish
 Default : No
 Forced : No

 Menu
 00:00:00.000 : en:Chapter 01
 00:08:02.773 : en:Chapter 02
 00:17:38.557 : en:Chapter 03
 00:27:55.924 : en:Chapter 04
 00:35:34.465 : en:Chapter 05
 00:41:22.438 : en:Chapter 06
 00:49:58.996 : en:Chapter 07
 00:59:05.208 : en:Chapter 08
 01:08:15.883 : en:Chapter 09
 01:17:30.562 : en:Chapter 10
 01:23:12.195 : en:Chapter 11
 01:33:29.270 : en:Chapter 12
 01:43:14.021 : en:Chapter 13
 01:46:54.741 : en:Chapter 14
Image Image
Image Image
Image Image


LINKS:

Shaft.2019.1080p.BluRay.REMUX.AVC.DTS-HD.MA.TrueHD.7.1.Atmos-FGT.mkv  [30.74 Gb]
Image

Post Reply

Return to “HD Quality”