The Poison Rose (2019) *1080p BluRay* - FGT

Release forum for : 720p, 1080i and 1080p.
Note: Please be aware of the technical requirements before posting in this section.

Moderator: unusual

Forum rules
Board rules & regulations

***Only movie releases with an horizontal resolution above 960pixels will be accepted in this section***
Post Reply
User avatar
lost_rider34
Phantom
Phantom
Posts: 552
Joined: October 1st 2009 - 6:36 pm
P2P Clients: eMule (v0.50b) Beta
Has thanked: 23 times
Been thanked: 139 times

The Poison Rose (2019) *1080p BluRay* - FGT

Post by lost_rider34 » October 10th 2019 - 5:27 pm

Image
A fomer football player-turned-private investigator is hired to investigate what appears to be a routine missing-persons case. It leads him to an intricate plot that seemingly pins a murder on his long-lost daughter.
https://www.imdb.com/title/tt5862166/

Code: Select all

Video
 ID : 1
 Format : AVC
 Format/Info : Advanced Video Codec
 Format profile : High@L4.1
 Format settings : CABAC / 5 Ref Frames
 Format settings, CABAC : Yes
 Format settings, ReFrames : 5 frames
 Codec ID : V_MPEG4/ISO/AVC
 Duration : 1 h 37 min
 Bit rate : 8 955 kb/s
 Width : 1 920 pixels
 Height : 816 pixels
 Display aspect ratio : 2.35:1
 Frame rate mode : Constant
 Frame rate : 23.976 (24000/1001) FPS
 Color space : YUV
 Chroma subsampling : 4:2:0
 Bit depth : 8 bits
 Scan type : Progressive
 Bits/(Pixel*Frame) : 0.238
 Stream size : 6.12 GiB (69%)
 Title : The.Poison.Rose.2019.1080p.BluRay.x264.TrueHD.5.1-FGT
 Writing library : x264 core 157 r2970 5493be8
 Encoding settings : cabac=1 / ref=5 / deblock=1:-3:-3 / analyse=0x3:0x113 / me=umh / subme=8 / psy=1 / psy_rd=1.00:0.00 / mixed_ref=1 / me_range=32 / chroma_me=1 / trellis=2 / 8x8dct=1 / cqm=0 / deadzone=21,11 / fast_pskip=1 / chroma_qp_offset=-2 / threads=25 / lookahead_threads=4 / sliced_threads=0 / nr=0 / decimate=1 / interlaced=0 / bluray_compat=0 / constrained_intra=0 / bframes=3 / b_pyramid=2 / b_adapt=2 / b_bias=0 / direct=3 / weightb=1 / open_gop=0 / weightp=2 / keyint=240 / keyint_min=24 / scenecut=40 / intra_refresh=0 / rc_lookahead=50 / rc=2pass / mbtree=1 / bitrate=8955 / ratetol=1.0 / qcomp=0.60 / qpmin=0 / qpmax=69 / qpstep=4 / cplxblur=20.0 / qblur=0.5 / ip_ratio=1.40 / aq=3:0.80
 Default : Yes
 Forced : No

 Audio #1
 ID : 2
 Format : MLP FBA
 Format/Info : Meridian Lossless Packing FBA
 Commercial name : Dolby TrueHD
 Codec ID : A_TRUEHD
 Duration : 1 h 37 min
 Bit rate mode : Variable
 Bit rate : 3 367 kb/s
 Maximum bit rate : 5 013 kb/s
 Channel(s) : 6 channels
 Channel layout : L R C LFE Ls Rs
 Sampling rate : 48.0 kHz
 Frame rate : 1 200.000 FPS (40 SPF)
 Compression mode : Lossless
 Stream size : 2.30 GiB (26%)
 Title : The.Poison.Rose.2019.1080p.BluRay.x264.TrueHD.5.1-FGT
 Language : English
 Default : Yes
 Forced : No

 Audio #2
 ID : 3
 Format : AC-3
 Format/Info : Audio Coding 3
 Commercial name : Dolby Digital
 Codec ID : A_AC3
 Duration : 1 h 37 min
 Bit rate mode : Constant
 Bit rate : 640 kb/s
 Channel(s) : 6 channels
 Channel layout : L R C LFE Ls Rs
 Sampling rate : 48.0 kHz
 Frame rate : 31.250 FPS (1536 SPF)
 Bit depth : 16 bits
 Compression mode : Lossy
 Stream size : 448 MiB (5%)
 Title : The.Poison.Rose.2019.1080p.BluRay.x264.TrueHD.5.1-FGT
 Language : English
 Service kind : Complete Main
 Default : No
 Forced : No

 Text #1
 ID : 4
 Format : UTF-8
 Codec ID : S_TEXT/UTF8
 Codec ID/Info : UTF-8 Plain Text
 Duration : 1 h 31 min
 Bit rate : 57 b/s
 Count of elements : 1303
 Stream size : 38.4 KiB (0%)
 Title : English-SRT
 Language : English
 Default : Yes
 Forced : No

 Text #2
 ID : 5
 Format : UTF-8
 Codec ID : S_TEXT/UTF8
 Codec ID/Info : UTF-8 Plain Text
 Duration : 1 h 32 min
 Bit rate : 59 b/s
 Count of elements : 1418
 Stream size : 40.5 KiB (0%)
 Title : English-SDH-SRT
 Language : English
 Default : No
 Forced : No

 Text #3
 ID : 6
 Format : PGS
 Muxing mode : zlib
 Codec ID : S_HDMV/PGS
 Codec ID/Info : Picture based subtitle format used on BDs/HD-DVDs
 Duration : 1 h 32 min
 Bit rate : 28.5 kb/s
 Count of elements : 2836
 Stream size : 18.9 MiB (0%)
 Title : English-PGS
 Language : English
 Default : No
 Forced : No

 Text #4
 ID : 7
 Format : PGS
 Muxing mode : zlib
 Codec ID : S_HDMV/PGS
 Codec ID/Info : Picture based subtitle format used on BDs/HD-DVDs
 Duration : 1 h 31 min
 Bit rate : 33.6 kb/s
 Count of elements : 2926
 Stream size : 22.0 MiB (0%)
 Title : French-PGS
 Language : French
 Default : No
 Forced : No

 Menu
 00:00:00.000 : en:Chapter 01
 00:13:44.740 : en:Chapter 02
 00:28:56.776 : en:Chapter 03
 00:42:04.980 : en:Chapter 04
 00:54:10.372 : en:Chapter 05
 01:06:49.797 : en:Chapter 06
 01:22:01.625 : en:Chapter 07
 01:33:05.288 : en:Chapter 08
Image Image
Image Image
Image Image


LINKS:

The.Poison.Rose.2019.1080p.BluRay.x264.TrueHD.5.1-FGT.mkv  [8.91 Gb]
The.Poison.Rose.2019.1080p.BluRay.x264.TrueHD.5.1-FGT.srt  [85.5 Kb]


[ Add all 2 links to your ed2k client ]
Image

Post Reply

Return to “HD Quality”