The Professor and the Madman (2019) *1080p BluRay* - FGT

Release forum for : 720p, 1080i and 1080p.
Note: Please be aware of the technical requirements before posting in this section.

Moderator: unusual

Forum rules
Board rules & regulations

***Only movie releases with an horizontal resolution above 960pixels will be accepted in this section***
Post Reply
User avatar
lost_rider34
Phantom
Phantom
Posts: 552
Joined: October 1st 2009 - 6:36 pm
P2P Clients: eMule (v0.50b) Beta
Has thanked: 23 times
Been thanked: 139 times

The Professor and the Madman (2019) *1080p BluRay* - FGT

Post by lost_rider34 » October 10th 2019 - 5:25 pm

Image
https://www.imdb.com/title/tt5932728/
Based on the worldwide best-selling novel by Simon Winchester, THE PROFESSOR AND THE MADMAN is an extraordinary true tale of madness, genius, and obsession about two remarkable men who created history with the writing of the Oxford English Dictionary. The compilation of the Oxford English Dictionary began in 1857 and was one of the most ambitious, and revolutionary projects ever undertaken. Professor James Murray (Mel Gibson) took on the challenge of creating the most comprehensive dictionary ever compiled, but knew that it would take him and his team over a century to compile all known definitions. However, by "crowd sourcing" the work, that is, by enlisting definitions from people all over the world, the dictionary could be compiled in mere decades. As definitions were collected, the overseeing committee, led by Professor Murray, discovered that one man, Dr. W.C. Minor (Sean Penn), had submitted more than ten thousand words. When the committee insisted on honoring him, a shocking truth came to light: Dr. Minor, an American Civil War veteran, was a convicted murderer and being held at an asylum for the criminally insane.

Code: Select all

Video
 ID : 1
 Format : AVC
 Format/Info : Advanced Video Codec
 Format profile : High@L4.1
 Format settings : CABAC / 5 Ref Frames
 Format settings, CABAC : Yes
 Format settings, ReFrames : 5 frames
 Codec ID : V_MPEG4/ISO/AVC
 Duration : 2 h 4 min
 Bit rate : 11.0 Mb/s
 Width : 1 920 pixels
 Height : 808 pixels
 Display aspect ratio : 2.40:1
 Frame rate mode : Constant
 Frame rate : 23.976 (24000/1001) FPS
 Color space : YUV
 Chroma subsampling : 4:2:0
 Bit depth : 8 bits
 Scan type : Progressive
 Bits/(Pixel*Frame) : 0.297
 Stream size : 9.61 GiB (86%)
 Title : The.Professor.and.the.Madman.2019.1080p.BluRay.x264.DTS-HD.MA.5.1-FGT
 Writing library : x264 core 157 r2969 d4099dd
 Encoding settings : cabac=1 / ref=5 / deblock=1:0:0 / analyse=0x3:0x133 / me=umh / subme=7 / psy=1 / psy_rd=1.00:0.00 / mixed_ref=1 / me_range=16 / chroma_me=1 / trellis=1 / 8x8dct=1 / cqm=0 / deadzone=21,11 / fast_pskip=0 / chroma_qp_offset=-2 / threads=18 / lookahead_threads=3 / sliced_threads=0 / nr=0 / decimate=1 / interlaced=0 / bluray_compat=0 / constrained_intra=0 / bframes=3 / b_pyramid=2 / b_adapt=1 / b_bias=0 / direct=1 / weightb=1 / open_gop=0 / weightp=2 / keyint=240 / keyint_min=23 / scenecut=40 / intra_refresh=0 / rc_lookahead=40 / rc=2pass / mbtree=1 / bitrate=11040 / ratetol=1.0 / qcomp=0.60 / qpmin=10 / qpmax=51 / qpstep=4 / cplxblur=20.0 / qblur=0.5 / ip_ratio=1.40 / aq=1:1.00
 Default : Yes
 Forced : No

 Audio
 ID : 2
 Format : DTS XLL
 Format/Info : Digital Theater Systems
 Commercial name : DTS-HD Master Audio
 Codec ID : A_DTS
 Duration : 2 h 4 min
 Bit rate mode : Variable
 Bit rate : 1 853 kb/s
 Channel(s) : 6 channels
 Channel layout : C L R Ls Rs LFE
 Sampling rate : 48.0 kHz
 Frame rate : 93.750 FPS (512 SPF)
 Bit depth : 16 bits
 Compression mode : Lossless
 Stream size : 1.61 GiB (14%)
 Title : The.Professor.and.the.Madman.2019.1080p.BluRay.x264.DTS-HD.MA.5.1-FGT
 Language : English
 Default : Yes
 Forced : No

 Text #1
 ID : 3
 Format : UTF-8
 Codec ID : S_TEXT/UTF8
 Codec ID/Info : UTF-8 Plain Text
 Duration : 1 h 56 min
 Bit rate : 65 b/s
 Count of elements : 1581
 Stream size : 55.9 KiB (0%)
 Title : English-SRT
 Language : English
 Default : Yes
 Forced : No

 Text #2
 ID : 4
 Format : PGS
 Muxing mode : zlib
 Codec ID : S_HDMV/PGS
 Codec ID/Info : Picture based subtitle format used on BDs/HD-DVDs
 Duration : 1 h 57 min
 Bit rate : 35.6 kb/s
 Count of elements : 3358
 Stream size : 29.9 MiB (0%)
 Title : English-PGS
 Language : English
 Default : No
 Forced : No

 Menu
 00:00:00.000 : en:Chapter 01
 00:15:11.327 : en:Chapter 02
 00:42:26.335 : en:Chapter 03
 01:05:14.201 : en:Chapter 04
 01:26:20.550 : en:Chapter 05
 01:45:36.246 : en:Chapter 06
Image Image
Image Image
Image Image


LINKS:

The.Professor.and.the.Madman.2019.1080p.BluRay.x264.DTS-HD.MA.5.1-FGT.mkv  [11.24 Gb]
The.Professor.and.the.Madman.2019.1080p.BluRay.x264.DTS-HD.MA.5.1-FGT.srt  [114.2 Kb]


[ Add all 2 links to your ed2k client ]
Image

Post Reply

Return to “HD Quality”