Fighting with My Family (2019) *HDCAM* - VAiN

Release forum for : CAM, TS, TC, and VHS.

Moderator: unusual

Post Reply
User avatar
unusual
eD2k Moderator
eD2k Moderator
Posts: 3907
Joined: June 4th 2016 - 1:54 am
P2P Clients: eMule / aMule
Location: somewhere in sharing community :)
Has thanked: 1 time
Been thanked: 701 times
Contact:

Fighting with My Family (2019) *HDCAM* - VAiN

Post by unusual » March 14th 2019 - 8:41 pm

Image

The family that fights together, stays together. Headed by reformed gangster Ricky, his wife Julia, and their two kids Zak and Paige, the Bevis family barely gets by wrestling for small audiences at dinky venues. When Zak and Paige have the once in a lifetime chance to audition for the WWE, the family has to navigate the trials that come with the bright lights and big money that comes with fame.
https://www.imdb.com/title/tt6513120/

Code: Select all

[img]http://i.imgur.com/FJi0aRt.png[/img] 

:info:
[b]P R E S E N T S . . . .[/b] 
Fighting.with.My.Family.2019.HDCAM.XviD-VAiN
 iMDB........: https://www.imdb.com/title/tt6513120/
T E C H N i C A L . i N F O . . .
Format                      : AVI
Format/Info                 : Audio Video Interleave
File size                   : 1.42 GiB
Duration                    : 1 h 45 min
Overall bit rate            : 1 927 kb/s
Writing library             : VirtualDub build 35491/release

Video
ID                          : 0
Format                      : MPEG-4 Visual
Format profile              : Advanced Simple@L5
Format settings             : BVOP2
Format settings, BVOP       : 2
Format settings, QPel       : No
Format settings, GMC        : No warppoints
Format settings, Matrix     : Default (H.263)
Muxing mode                 : Packed bitstream
Codec ID                    : XviD
Codec ID/Hint               : XviD
Duration                    : 1 h 45 min
Bit rate                    : 1 723 kb/s
Width                       : 720 pixels
Height                      : 280 pixels
Display aspect ratio        : 2.571
Frame rate                  : 29.970 (30000/1001) FPS
Color space                 : YUV
Chroma subsampling          : 4:2:0
Bit depth                   : 8 bits
Scan type                   : Progressive
Compression mode            : Lossy
Bits/(Pixel*Frame)          : 0.285
Stream size                 : 1.27 GiB (89%)
Writing library             : XviD 67

Audio
ID                          : 1
Format                      : MPEG Audio
Format version              : Version 1
Format profile              : Layer 3
Format settings             : Joint stereo / MS Stereo
Codec ID                    : 55
Codec ID/Hint               : MP3
Duration                    : 1 h 45 min
Bit rate mode               : Constant
Bit rate                    : 192 kb/s
Channel(s)                  : 2 channels
Sampling rate               : 48.0 kHz
Compression mode            : Lossy
Stream size                 : 145 MiB (10%)
Alignment                   : Split accross interleaves
Interleave, duration        : 33  ms (1.00 video frame)
Interleave, preload duratio : 500  ms

[img]https://i.imgur.com/lBY01Nf.png[/img]
:notes:    
SOURCE......: ViDEO...WaTcHeRs...thanks
............: AUDiO...WaTcHeRs...thanks
SAMPLE......: YiP....
ADDED NOTE..: i know it's been a minute but we have been pretty busy with with RLS as of late. 
Trying to get it together and release more. Now on to the encode; pretty good quality didn't have 
to do much but received the vobs, did what needed to be done, added the 0l poo shine and well.... here we are.. 


:screens:

[img]https://i.imgur.com/WXTvZSi.png[/img]
[img]https://i.imgur.com/c1dxAKx.png[/img]
[img]https://i.imgur.com/Dqi309Y.png[/img]
[img]https://i.imgur.com/4Qvy3fz.png[/img]
[img]https://i.imgur.com/h0pZQUF.png[/img]
[img]https://i.imgur.com/izQsgAO.png[/img]

Image Image
Image Image
Image Image


Fighting.with.My.Family.(2019).HDCAM.XviD-VAiN.avi  [1.42 Gb]
Image
Image

clayton
Phantom
Phantom
Posts: 1014
Joined: October 19th 2012 - 10:01 pm
P2P Clients: eMule
Has thanked: 93 times
Been thanked: 10 times

Re: Fighting with My Family (2019) *HDCAM* - VAiN

Post by clayton » March 15th 2019 - 11:23 am

thank you

Post Reply

Return to “Low Quality”