Solo: A Star Wars Story (2018) *1080p BluRay* - FGT

Release forum for : 720p, 1080i and 1080p.
Note: Please be aware of the technical requirements before posting in this section.

Moderator: unusual

Forum rules
Board rules & regulations

***Only movie releases with an horizontal resolution above 960pixels will be accepted in this section***
Post Reply
User avatar
lost_rider34
Phantom
Phantom
Posts: 506
Joined: October 1st 2009 - 6:36 pm
P2P Clients: eMule (v0.50b) Beta
Has thanked: 22 times
Been thanked: 110 times

Solo: A Star Wars Story (2018) *1080p BluRay* - FGT

Post by lost_rider34 » September 15th 2018 - 2:18 pm

Image

https://www.imdb.com/title/tt3778644/
Board the Millennium Falcon and journey to a galaxy far, far away in Solo: A Star Wars Story, an all-new adventure with the most beloved scoundrel in the galaxy. Through a series of daring escapades deep within a dark and dangerous criminal underworld, Han Solo meets his mighty future copilot Chewbacca and encounters the notorious gambler Lando Calrissian, in a journey that will set the course of one of the Star Wars saga's most unlikely heroes.

Code: Select all

Video
 ID : 1
 Format : AVC
 Format/Info : Advanced Video Codec
 Format profile : High@L4.1
 Format settings : CABAC / 5 Ref Frames
 Format settings, CABAC : Yes
 Format settings, ReFrames : 5 frames
 Codec ID : V_MPEG4/ISO/AVC
 Duration : 2 h 14 min
 Bit rate : 10.1 Mb/s
 Width : 1 920 pixels
 Height : 808 pixels
 Display aspect ratio : 2.40:1
 Frame rate mode : Constant
 Frame rate : 23.976 (24000/1001) FPS
 Color space : YUV
 Chroma subsampling : 4:2:0
 Bit depth : 8 bits
 Scan type : Progressive
 Bits/(Pixel*Frame) : 0.272
 Stream size : 9.51 GiB (65%)
 Title : Solo.A.Star.Wars.Story.2018.1080p.BluRay.x264.DTS-HD.MA.7.1-FGT
 Writing library : x264 core 157 r2932 303c484
 Encoding settings : cabac=1 / ref=5 / deblock=1:-3:-3 / analyse=0x3:0x113 / me=umh / subme=8 / psy=1 / psy_rd=1.00:0.00 / mixed_ref=1 / me_range=16 / chroma_me=1 / trellis=1 / 8x8dct=1 / cqm=0 / deadzone=21,11 / fast_pskip=1 / chroma_qp_offset=-2 / threads=24 / lookahead_threads=4 / sliced_threads=0 / nr=0 / decimate=1 / interlaced=0 / bluray_compat=0 / constrained_intra=0 / bframes=3 / b_pyramid=2 / b_adapt=1 / b_bias=0 / direct=3 / weightb=1 / open_gop=0 / weightp=2 / keyint=250 / keyint_min=23 / scenecut=40 / intra_refresh=0 / rc_lookahead=50 / rc=2pass / mbtree=1 / bitrate=10102 / ratetol=1.0 / qcomp=0.60 / qpmin=0 / qpmax=69 / qpstep=4 / cplxblur=20.0 / qblur=0.5 / ip_ratio=1.40 / aq=1:1.00
 Language : English
 Default : Yes
 Forced : No

 Audio
 ID : 2
 Format : DTS
 Format/Info : Digital Theater Systems
 Format profile : MA / Core
 Codec ID : A_DTS
 Duration : 2 h 14 min
 Bit rate mode : Variable / Constant
 Bit rate : 5 407 kb/s / 1 509 kb/s
 Channel(s) : 8 channels / 6 channels
 Channel positions : Front: L C R, Side: L R, Back: L R, LFE / Front: L C R, Side: L R, LFE
 Sampling rate : 48.0 kHz
 Frame rate : 93.750 FPS (512 SPF)
 Bit depth : 24 bits
 Compression mode : Lossless / Lossy
 Stream size : 5.09 GiB (35%)
 Title : Solo.A.Star.Wars.Story.2018.1080p.BluRay.x264.DTS-HD.MA.7.1-FGT
 Language : English
 Default : Yes
 Forced : No

 Text #1
 ID : 3
 Format : UTF-8
 Codec ID : S_TEXT/UTF8
 Codec ID/Info : UTF-8 Plain Text
 Duration : 1 h 17 min
 Bit rate : 0 b/s
 Count of elements : 16
 Stream size : 362 Bytes (0%)
 Title : English-FORCED-SRT
 Language : English
 Default : Yes
 Forced : Yes

 Text #2
 ID : 4
 Format : UTF-8
 Codec ID : S_TEXT/UTF8
 Codec ID/Info : UTF-8 Plain Text
 Duration : 2 h 5 min
 Bit rate : 56 b/s
 Count of elements : 1975
 Stream size : 52.1 KiB (0%)
 Title : English-SRT
 Language : English
 Default : No
 Forced : No

 Text #3
 ID : 5
 Format : PGS
 Muxing mode : zlib
 Codec ID : S_HDMV/PGS
 Codec ID/Info : Picture based subtitle format used on BDs/HD-DVDs
 Duration : 2 h 5 min
 Bit rate : 42.3 kb/s
 Count of elements : 4496
 Stream size : 37.9 MiB (0%)
 Title : English-PGS
 Language : English
 Default : No
 Forced : No
Image Image
Image Image
Image Image


INKS:

Solo.A.Star.Wars.Story.2018.1080p.BluRay.x264.DTS-HD.MA.7.1-FGT.mkv  [14.61 Gb]
Solo.A.Star.Wars.Story.2018.1080p.BluRay.x264.DTS-HD.MA.7.1-FGT.nfo  [2.9 Kb]


[ Add all 2 links to your ed2k client ]
Image

User avatar
carpe
The Sharing Sith
The Sharing Sith
Posts: 25559
Joined: June 22nd 2006 - 1:29 pm
P2P Clients: eMule (v0.4?)
Location: Take a left at the bathroom, 3 doors down and another left...or was that a right...Is that my Beer?
Has thanked: 11 times
Been thanked: 9 times
Contact:

Re: Solo: A Star Wars Story (2018) *1080p BluRay* - FGT

Post by carpe » September 15th 2018 - 10:44 pm

Nice post! Great movie!

Post Reply

Return to “HD Quality”