Jurassic World: Fallen Kingdom (2018) *1080p BluRay* - FGT

Release forum for : 720p, 1080i and 1080p.
Note: Please be aware of the technical requirements before posting in this section.

Moderator: unusual

Forum rules
Board rules & regulations

***Only movie releases with an horizontal resolution above 960pixels will be accepted in this section***
Post Reply
User avatar
lost_rider34
Phantom
Phantom
Posts: 506
Joined: October 1st 2009 - 6:36 pm
P2P Clients: eMule (v0.50b) Beta
Has thanked: 22 times
Been thanked: 110 times

Jurassic World: Fallen Kingdom (2018) *1080p BluRay* - FGT

Post by lost_rider34 » September 13th 2018 - 10:51 pm

Image
https://www.imdb.com/title/tt4881806/
It's been three years since theme park and luxury resort Jurassic World was destroyed by dinosaurs out of containment. Isla Nublar now sits abandoned by humans while the surviving dinosaurs fend for themselves in the jungles. When the island's dormant volcano begins roaring to life, Owen (Chris Pratt) and Claire (Bryce Dallas Howard) mount a campaign to rescue the remaining dinosaurs from this extinction-level event. Owen is driven to find Blue, his lead raptor who's still missing in the wild, and Claire has grown a respect for these creatures she now makes her mission. Arriving on the unstable island as lava begins raining down, their expedition uncovers a conspiracy that could return our entire planet to a perilous order not seen since prehistoric times.

Code: Select all

Video
 ID : 1
 Format : AVC
 Format/Info : Advanced Video Codec
 Format profile : High@L4.1
 Format settings : CABAC / 5 Ref Frames
 Format settings, CABAC : Yes
 Format settings, ReFrames : 5 frames
 Codec ID : V_MPEG4/ISO/AVC
 Duration : 2 h 8 min
 Bit rate : 9 468 kb/s
 Width : 1 920 pixels
 Height : 808 pixels
 Display aspect ratio : 2.40:1
 Frame rate mode : Constant
 Frame rate : 23.976 (24000/1001) FPS
 Color space : YUV
 Chroma subsampling : 4:2:0
 Bit depth : 8 bits
 Scan type : Progressive
 Bits/(Pixel*Frame) : 0.255
 Stream size : 8.48 GiB (69%)
 Title : Jurassic.World.Fallen.Kingdom.2018.1080p.BluRay.x264.DTS-HD.MA.7.1-FGT
 Writing library : x264 core 157 r2932 303c484
 Encoding settings : cabac=1 / ref=5 / deblock=1:-3:-3 / analyse=0x3:0x113 / me=umh / subme=8 / psy=1 / psy_rd=1.00:0.00 / mixed_ref=1 / me_range=16 / chroma_me=1 / trellis=1 / 8x8dct=1 / cqm=0 / deadzone=21,11 / fast_pskip=1 / chroma_qp_offset=-2 / threads=24 / lookahead_threads=4 / sliced_threads=0 / nr=0 / decimate=1 / interlaced=0 / bluray_compat=0 / constrained_intra=0 / bframes=3 / b_pyramid=2 / b_adapt=1 / b_bias=0 / direct=3 / weightb=1 / open_gop=0 / weightp=2 / keyint=250 / keyint_min=23 / scenecut=40 / intra_refresh=0 / rc_lookahead=50 / rc=2pass / mbtree=1 / bitrate=9468 / ratetol=1.0 / qcomp=0.60 / qpmin=0 / qpmax=69 / qpstep=4 / cplxblur=20.0 / qblur=0.5 / ip_ratio=1.40 / aq=1:1.00
 Language : English
 Default : Yes
 Forced : No

 Audio
 ID : 2
 Format : DTS
 Format/Info : Digital Theater Systems
 Format profile : X / MA / Core
 Codec ID : A_DTS
 Duration : 2 h 8 min
 Bit rate mode : Variable / Variable / Constant
 Bit rate : 4 231 kb/s / 4 231 kb/s / 1 509 kb/s
 Channel(s) : Object Based / 8 channels / 6 channels
 Channel positions : Object Based / Front: L C R, Side: L R, Back: L R, LFE / Front: L C R, Side: L R, LFE
 Sampling rate : / 48.0 kHz / 48.0 kHz
 Frame rate : 93.750 FPS (512 SPF)
 Bit depth : / 24 bits / 24 bits
 Compression mode : / Lossless / Lossy
 Stream size : 3.79 GiB (31%)
 Title : Jurassic.World.Fallen.Kingdom.2018.1080p.BluRay.x264.DTS-HD.MA.7.1-FGT
 Language : English
 Default : Yes
 Forced : No

 Text #1
 ID : 3
 Format : UTF-8
 Codec ID : S_TEXT/UTF8
 Codec ID/Info : UTF-8 Plain Text
 Duration : 1 h 55 min
 Bit rate : 42 b/s
 Count of elements : 1198
 Stream size : 36.2 KiB (0%)
 Title : English-SRT
 Language : English
 Default : Yes
 Forced : No

 Text #2
 ID : 4
 Format : PGS
 Muxing mode : zlib
 Codec ID : S_HDMV/PGS
 Codec ID/Info : Picture based subtitle format used on BDs/HD-DVDs
 Duration : 2 h 7 min
 Bit rate : 35.3 kb/s
 Count of elements : 3541
 Stream size : 32.1 MiB (0%)
 Language : English
 Default : No
 Forced : No

Image Image
Image Image
Image Image
Image Image



LINKS:

Jurassic.World.Fallen.Kingdom.2018.1080p.BluRay.x264.DTS-X.7.1-FGT.mkv  [12.29 Gb]
Jurassic.World.Fallen.Kingdom.2018.1080p.BluRay.x264.DTS-X.7.1-FGT.nfo  [2.7 Kb]
Jurassic.World.Fallen.Kingdom.2018.1080p.BluRay.x264.DTS-X.7.1-FGT.srt  [74.1 Kb]


[ Add all 3 links to your ed2k client ]
Image

Post Reply

Return to “HD Quality”