Solo: A Star Wars Story (2018) *1080p BluRay* - HDC

Release forum for : 720p, 1080i and 1080p.
Note: Please be aware of the technical requirements before posting in this section.

Moderator: unusual

Forum rules
Board rules & regulations

***Only movie releases with an horizontal resolution above 960pixels will be accepted in this section***
Post Reply
User avatar
lost_rider34
Poltergeist
Poltergeist
Posts: 499
Joined: October 1st 2009 - 6:36 pm
P2P Clients: eMule (v0.50b) Beta
Has thanked: 22 times
Been thanked: 103 times

Solo: A Star Wars Story (2018) *1080p BluRay* - HDC

Post by lost_rider34 » September 13th 2018 - 10:49 pm

Image
https://www.imdb.com/title/tt3778644/
Board the Millennium Falcon and journey to a galaxy far, far away in Solo: A Star Wars Story, an all-new adventure with the most beloved scoundrel in the galaxy. Through a series of daring escapades deep within a dark and dangerous criminal underworld, Han Solo meets his mighty future copilot Chewbacca and encounters the notorious gambler Lando Calrissian, in a journey that will set the course of one of the Star Wars saga's most unlikely heroes.

Code: Select all

Video
 ID : 1
 Format : AVC
 Format/Info : Advanced Video Codec
 Format profile : High@L4.1
 Format settings : CABAC / 5 Ref Frames
 Format settings, CABAC : Yes
 Format settings, ReFrames : 5 frames
 Codec ID : V_MPEG4/ISO/AVC
 Duration : 2 h 14 min
 Bit rate : 17.5 Mb/s
 Width : 1 920 pixels
 Height : 804 pixels
 Display aspect ratio : 2.40:1
 Frame rate mode : Constant
 Frame rate : 23.976 (24000/1001) FPS
 Color space : YUV
 Chroma subsampling : 4:2:0
 Bit depth : 8 bits
 Scan type : Progressive
 Bits/(Pixel*Frame) : 0.473
 Stream size : 16.5 GiB (92%)
 Title : Solo.A.Star.Wars.Story.2018.1080p.BluRay.x264.DTS-HDC
 Writing library : x264 core 152 r2851kMod ba24899
 Encoding settings : cabac=1 / ref=5 / deblock=1:-3:-3 / analyse=0x3:0x133 / me=umh / subme=11 / psy=1 / fade_compensate=0.00 / psy_rd=1.10:0.00 / mixed_ref=1 / me_range=64 / chroma_me=1 / trellis=2 / 8x8dct=1 / cqm=0 / deadzone=21,11 / fast_pskip=0 / chroma_qp_offset=-2 / threads=24 / lookahead_threads=4 / sliced_threads=0 / nr=0 / decimate=0 / interlaced=0 / bluray_compat=0 / constrained_intra=0 / bframes=8 / b_pyramid=2 / b_adapt=2 / b_bias=0 / direct=3 / weightb=1 / open_gop=0 / weightp=2 / keyint=240 / keyint_min=2 / scenecut=40 / intra_refresh=0 / rc=2pass / mbtree=0 / bitrate=17500 / ratetol=1.0 / qcomp=0.70 / qpmin=0 / qpmax=69 / qpstep=4 / cplxblur=20.0 / qblur=0.5 / ip_ratio=1.30 / pb_ratio=1.20 / aq=3:0.90
 Language : English
 Default : Yes
 Forced : No

 Audio
 ID : 2
 Format : DTS
 Format/Info : Digital Theater Systems
 Codec ID : A_DTS
 Duration : 2 h 14 min
 Bit rate mode : Constant
 Bit rate : 1 509 kb/s
 Channel(s) : 6 channels
 Channel positions : Front: L C R, Side: L R, LFE
 Sampling rate : 48.0 kHz
 Frame rate : 93.750 FPS (512 SPF)
 Bit depth : 24 bits
 Compression mode : Lossy
 Stream size : 1.42 GiB (8%)
 Title : Solo.A.Star.Wars.Story.2018.1080p.BluRay.x264.DTS-HDC
 Language : English
 Default : Yes
 Forced : No

 Text #1
 ID : 3
 Format : UTF-8
 Codec ID : S_TEXT/UTF8
 Codec ID/Info : UTF-8 Plain Text
 Duration : 2 h 5 min
 Bit rate : 56 b/s
 Count of elements : 1957
 Stream size : 51.9 KiB (0%)
 Language : English
 Default : Yes
 Forced : No

 Text #2
 ID : 4
 Format : UTF-8
 Codec ID : S_TEXT/UTF8
 Codec ID/Info : UTF-8 Plain Text
 Duration : 2 h 5 min
 Bit rate : 63 b/s
 Count of elements : 2232
 Stream size : 58.5 KiB (0%)
 Title : SDH
 Language : English
 Default : No
 Forced : No

 Menu
 00:00:00.000 : en:Opening Credits
 00:00:53.845 : en:Streets of Corellia
 00:02:10.213 : en:Qi\'ra
 00:03:53.150 : en:Den of The White Worms
 00:06:00.485 : en:Corellian Speeder Chase
 00:09:27.567 : en:Coronet Spaceport
 00:13:16.045 : en:Recruitment
 00:14:14.020 : en:Mimban Battlefield
 00:16:12.263 : en:None-of-Your-Business Company
 00:19:45.101 : en:The Beast
 00:22:43.821 : en:Mimban Escape
 00:24:37.267 : en:Vandor
 00:27:00.035 : en:Camfire Stories
 00:30:02.926 : en:Conveyex Heist
 00:32:54.681 : en:Marauder Attack
 00:39:09.764 : en:\"You\'re in This Life For Good\"
 00:41:59.225 : en:The Yacht
 00:43:20.181 : en:Dryden Vos
 00:44:32.128 : en:Reunion
 00:48:03.756 : en:Deal with Crimson Dawn
 00:51:58.324 : en:The Lodge
 00:53:17.528 : en:Full Sabacc
 00:57:23.523 : en:Lando and L3
 01:00:16.780 : en:Millennium Falcon
 01:02:40.882 : en:\"Buckle Up, Baby\"
 01:04:51.262 : en:\"People Are Predictable\"
 01:05:29.509 : en:Han and Qi\'ra
 01:07:12.028 : en:\"Trust No One\"
 01:08:05.915 : en:Not Cpmpatible
 01:10:00.113 : en:Arrival on Kessel
 01:12:44.193 : en:Into the Mines
 01:14:40.851 : en:Revolt
 01:18:30.873 : en:Kessel Shootout
 01:23:15.741 : en:Into the Maelstrom
 01:26:32.646 : en:Kessel Run
 01:30:33.136 : en:Escaping the Maw
 01:35:19.672 : en:Savareen
 01:37:04.861 : en:The Good Guy
 01:38:52.802 : en:Marauders Return
 01:41:18.531 : en:Enfys Nest
 01:43:02.676 : en:One Last Score
 01:45:27.821 : en:The Delivery
 01:46:32.177 : en:Explosive Stuff
 01:49:45.996 : en:Double-Crossings
 01:53:33.890 : en:Duel with Dryden
 01:57:13.902 : en:Secret Leader
 01:58:55.128 : en:Showdown
 02:01:34.829 : en:Rebellion\'s Dawn
 02:03:20.893 : en:Sabacc Rematch
 02:06:09.353 : en:End Credits
Image Image
Image Image
Image Image
Image Image



INKS:

Solo.A.Star.Wars.Story.2018.1080p.BluRay.x264.DTS-HD.MA.7.1-HDC.mkv  [21.56 Gb]
Solo.A.Star.Wars.Story.2018.1080p.BluRay.x264.DTS-HD.MA.7.1-HDC.srt  [131.5 Kb]


[ Add all 2 links to your ed2k client ]
Image

Post Reply

Return to “HD Quality”