Anon (2018) *1080p WEB* - STRiFE

Release forum for : 720p, 1080i and 1080p.
Note: Please be aware of the technical requirements before posting in this section.

Moderator: unusual

Forum rules
Board rules & regulations

***Only movie releases with an horizontal resolution above 960pixels will be accepted in this section***
Post Reply
User avatar
lost_rider34
Phantom
Phantom
Posts: 506
Joined: October 1st 2009 - 6:36 pm
P2P Clients: eMule (v0.50b) Beta
Has thanked: 22 times
Been thanked: 111 times

Anon (2018) *1080p WEB* - STRiFE

Post by lost_rider34 » August 8th 2018 - 1:36 pm

Image
https://www.imdb.com/title/tt5397194/
Sal Frieland (Owen) is a detective in a world with no privacy, ignorance, or anonymity; where everyone's lives are transparent, traceable, and recorded by the authorities; where crime almost ceases to exist. But in trying to solve a series of unsolved murders, Frieland stumbles on a young woman known only as the Girl (Seyfried). She has no identity, no history and is invisible to the cops. Sal realizes this may not be the end of crime, but the beginning.

Code: Select all

Video
 ID : 1
 Format : AVC
 Format/Info : Advanced Video Codec
 Format profile : Main@L4
 Format settings : CABAC / 3 Ref Frames
 Format settings, CABAC : Yes
 Format settings, RefFrames : 3 frames
 Codec ID : V_MPEG4/ISO/AVC
 Duration : 1 h 40 min
 Bit rate mode : Variable
 Bit rate : 4 640 kb/s
 Maximum bit rate : 6 960 kb/s
 Width : 1 920 pixels
 Height : 1 080 pixels
 Display aspect ratio : 16:9
 Frame rate mode : Constant
 Frame rate : 24.000 FPS
 Color space : YUV
 Chroma subsampling : 4:2:0
 Bit depth : 8 bits
 Scan type : Progressive
 Bits/(Pixel*Frame) : 0.093
 Stream size : 3.23 GiB (92%)
 Writing library : x264 core 148 r2715 7e75228
 Encoding settings : cabac=1 / ref=3 / deblock=1:0:0 / analyse=0x1:0x111 / me=umh / subme=10 / psy=1 / psy_rd=1.00:0.00 / mixed_ref=1 / me_range=24 / chroma_me=1 / trellis=2 / 8x8dct=0 / cqm=0 / deadzone=21,11 / fast_pskip=1 / chroma_qp_offset=-2 / threads=8 / lookahead_threads=1 / sliced_threads=0 / nr=0 / decimate=1 / interlaced=0 / bluray_compat=0 / stitchable=1 / constrained_intra=0 / bframes=2 / b_pyramid=0 / b_adapt=2 / b_bias=0 / direct=3 / weightb=1 / open_gop=0 / weightp=2 / keyint=48 / keyint_min=25 / scenecut=0 / intra_refresh=0 / rc_lookahead=48 / rc=2pass / mbtree=1 / bitrate=4640 / ratetol=1.0 / qcomp=0.50 / qpmin=6 / qpmax=51 / qpstep=4 / cplxblur=20.0 / qblur=0.5 / vbv_maxrate=6960 / vbv_bufsize=9280 / nal_hrd=vbr / filler=0 / ip_ratio=1.40 / aq=1:1.00
 Default : Yes
 Forced : No

 Audio
 ID : 2
 Format : AC-3
 Format/Info : Audio Coding 3
 Format settings, Endianness : Big
 Codec ID : A_AC3
 Duration : 1 h 40 min
 Bit rate mode : Constant
 Bit rate : 384 kb/s
 Channel(s) : 6 channels
 Channel positions : Front: L C R, Side: L R, LFE
 Sampling rate : 48.0 kHz
 Frame rate : 31.250 FPS (1536 SPF)
 Bit depth : 16 bits
 Compression mode : Lossy
 Stream size : 275 MiB (8%)
 Language : English
 Service kind : Complete Main
 Default : Yes
 Forced : No

 Text #1
 ID : 3
 Format : UTF-8
 Codec ID : S_TEXT/UTF8
 Codec ID/Info : UTF-8 Plain Text
 Duration : 1 h 29 min
 Bit rate : 38 b/s
 Count of elements : 912
 Stream size : 25.2 KiB (0%)
 Language : English
 Default : No
 Forced : No

 Text #2
 ID : 4
 Format : UTF-8
 Codec ID : S_TEXT/UTF8
 Codec ID/Info : UTF-8 Plain Text
 Duration : 1 h 39 min
 Bit rate : 34 b/s
 Count of elements : 902
 Stream size : 24.7 KiB (0%)
 Language : Dutch
 Default : No
 Forced : No

 Text #3
 ID : 5
 Format : UTF-8
 Codec ID : S_TEXT/UTF8
 Codec ID/Info : UTF-8 Plain Text
 Duration : 1 h 31 min
 Bit rate : 37 b/s
 Count of elements : 995
 Stream size : 25.1 KiB (0%)
 Language : French
 Default : No
 Forced : No

 Text #4
 ID : 6
 Format : UTF-8
 Codec ID : S_TEXT/UTF8
 Codec ID/Info : UTF-8 Plain Text
 Duration : 1 h 31 min
 Bit rate : 39 b/s
 Count of elements : 977
 Stream size : 26.4 KiB (0%)
 Language : Spanish
 Default : No
 Forced : No
Image Image
Image Image
Image Image


LINKS:

Anon.2018.1080p.WEB.x264-STRiFE.mkv  [3.50 Gb]
Anon.2018.1080p.WEB.x264-STRiFE.nfo  [43 Bytes]
Anon.2018.1080p.WEB.x264-STRiFE.srt  [64.5 Kb]


[ Add all 3 links to your ed2k client ]
Image

sandyp
Supporter
Supporter
Posts: 15973
Joined: May 25th 2010 - 2:24 pm
Location: scotland
Has thanked: 375 times
Been thanked: 826 times

Re: Anon (2018) *1080p WEB* - STRiFE

Post by sandyp » August 16th 2018 - 1:37 pm

:buds: :buds: :buds: lost_rider34 nice 1 lost_rider34 clicked

sandyp
Supporter
Supporter
Posts: 15973
Joined: May 25th 2010 - 2:24 pm
Location: scotland
Has thanked: 375 times
Been thanked: 826 times

Re: Anon (2018) *1080p WEB* - STRiFE

Post by sandyp » August 17th 2018 - 1:20 am

could someone please slot me for thee srt file please

sandyp
Supporter
Supporter
Posts: 15973
Joined: May 25th 2010 - 2:24 pm
Location: scotland
Has thanked: 375 times
Been thanked: 826 times

Re: Anon (2018) *1080p WEB* - STRiFE

Post by sandyp » August 17th 2018 - 4:03 pm

really no one slotting me for the srt file fair enough cancelling download

Post Reply

Return to “HD Quality”