Revenge (2017) [REMUX] *1080p BluRay* - FGT

Release forum for : 720p, 1080i and 1080p.
Note: Please be aware of the technical requirements before posting in this section.

Moderator: unusual

Forum rules
Board rules & regulations

***Only movie releases with an horizontal resolution above 960pixels will be accepted in this section***
Post Reply
User avatar
lost_rider34
Phantom
Phantom
Posts: 504
Joined: October 1st 2009 - 6:36 pm
P2P Clients: eMule (v0.50b) Beta
Has thanked: 22 times
Been thanked: 109 times

Revenge (2017) [REMUX] *1080p BluRay* - FGT

Post by lost_rider34 » August 7th 2018 - 7:10 pm

Image
https://www.imdb.com/title/tt6738136/
Jen (fearlessly embodied by Matilda Lutz, Rings) is enjoying a romantic getaway with her wealthy boyfriend which is suddenly disrupted when his sleazy friends arrive for an unannounced hunting trip. Tension mounts in the house until the situation abruptly--and viciously--intensifies, culminating in a shocking act that leaves Jen left for dead. Unfortunately for her assailants, Jen survives and reemerges with a relentless, wrathful intent: revenge. A white-knuckle tale of transgression and transformation, REVENGE gloriously blurs the lines of vengeance and survival while simultaneously delivering a ferocious dissection of gender and genre.

Code: Select all

Video
 ID : 1
 Format : AVC
 Format/Info : Advanced Video Codec
 Format profile : High@L4.1
 Format settings : CABAC / 4 Ref Frames
 Format settings, CABAC : Yes
 Format settings, ReFrames : 4 frames
 Codec ID : V_MPEG4/ISO/AVC
 Duration : 1 h 48 min
 Bit rate mode : Variable
 Bit rate : 19.8 Mb/s
 Maximum bit rate : 36.0 Mb/s
 Width : 1 920 pixels
 Height : 1 080 pixels
 Display aspect ratio : 16:9
 Frame rate mode : Constant
 Frame rate : 23.976 (24000/1001) FPS
 Color space : YUV
 Chroma subsampling : 4:2:0
 Bit depth : 8 bits
 Scan type : Progressive
 Bits/(Pixel*Frame) : 0.399
 Stream size : 15.0 GiB (79%)
 Title : Revenge.2017.1080p.BluRay.REMUX.AVC.DTS-HD.MA.5.1-FGT
 Language : English
 Default : No
 Forced : No

 Audio #1
 ID : 2
 Format : DTS
 Format/Info : Digital Theater Systems
 Format profile : MA / Core
 Codec ID : A_DTS
 Duration : 1 h 48 min
 Bit rate mode : Variable / Constant
 Bit rate : 3 741 kb/s / 1 509 kb/s
 Channel(s) : 6 channels
 Channel positions : Front: L C R, Side: L R, LFE
 Sampling rate : 48.0 kHz
 Frame rate : 93.750 FPS (512 SPF)
 Bit depth : 24 bits
 Compression mode : Lossless / Lossy
 Stream size : 2.84 GiB (15%)
 Title : Revenge.2017.1080p.BluRay.REMUX.AVC.DTS-HD.MA.5.1-FGT
 Language : English
 Default : Yes
 Forced : No

 Audio #2
 ID : 3
 Format : DTS
 Format/Info : Digital Theater Systems
 Codec ID : A_DTS
 Duration : 1 h 48 min
 Bit rate mode : Constant
 Bit rate : 1 509 kb/s
 Channel(s) : 6 channels
 Channel positions : Front: L C R, Side: L R, LFE
 Sampling rate : 48.0 kHz
 Frame rate : 93.750 FPS (512 SPF)
 Bit depth : 24 bits
 Compression mode : Lossy
 Stream size : 1.14 GiB (6%)
 Title : Revenge.2017.1080p.BluRay.REMUX.AVC.DTS-HD.MA.5.1-FGT
 Language : English
 Default : No
 Forced : No

 Text
 ID : 4
 Format : PGS
 Muxing mode : zlib
 Codec ID : S_HDMV/PGS
 Codec ID/Info : Picture based subtitle format used on BDs/HD-DVDs
 Duration : 1 h 43 min
 Bit rate : 6 254 b/s
 Count of elements : 922
 Stream size : 4.65 MiB (0%)
 Title : English-PGS
 Language : English
 Default : Yes
 Forced : No

 Menu
 00:00:00.000 : en:Chapter 01
 00:09:51.716 : en:Chapter 02
 00:14:02.967 : en:Chapter 03
 00:23:57.185 : en:Chapter 04
 00:37:53.437 : en:Chapter 05
 00:58:20.538 : en:Chapter 06
 01:25:53.898 : en:Chapter 07
 01:45:10.887 : en:Chapter 08
Image Image
Image Image
Image Image


LINKS:

Revenge.2017.1080p.BluRay.REMUX.AVC.DTS-HD.MA.5.1-FGT.mkv  [19.01 Gb]
Revenge.2017.1080p.BluRay.REMUX.AVC.DTS-HD.MA.5.1-FGT.nfo  [2.4 Kb]
Revenge.2017.1080p.BluRay.REMUX.AVC.DTS-HD.MA.5.1-FGT.srt  [25.6 Kb]


[ Add all 3 links to your ed2k client ]
Image

Post Reply

Return to “HD Quality”