Simply Red Live At Montreux 2003 (2012) BDRip 720p x264 AC3-

Complete Video Albums and Live Gigs / Shows.
Post Reply
User avatar
miggy
Phantom
Phantom
Posts: 882
Joined: August 25th 2007 - 2:35 pm
P2P Clients: eMule 0.50a uMule 1.0
Contact:

Simply Red Live At Montreux 2003 (2012) BDRip 720p x264 AC3-

Post by miggy » January 28th 2013 - 10:27 pm

Image

AMAZON Review
Simply Red are one of the most successful British acts of all time with global album sales in excess of 50 million. Both the band and Mick Hucknall as a solo artist have been frequent visitors to Montreux across their 25 year career. This concert, filmed on July 15th 2003, was part of the tour in support of their multi-platinum album Home. It features several tracks from that album, including many of their biggest hits and best loved album tracks. It s a typically polished and sparkling Simply Red performance with Mick Hucknall in excellent voice and the band in fine form. / Bonus Features: Seven tracks from Simply Red's 2010 Montreux performance: 1) Out On The Range 2) To Be With You 3) Your Mirror 4) Heaven 5) For Your Babies 6) Ain t That A Lot Of Love 7) If You Don t Know Me By Now / Line-up: Mick Hucknall (vocals); Ian Kirkham (saxophone); Kenji Suzuki (guitar); Steve Lewinson (bass); Pete Lewinson (drums); Dave Clayton (keyboards); Chris de Margary (flugelhorn, saxophone); John Johnson (trombone, percussion); Kevin Robinson (trumpet); Sarah Brown (backing vocals); Dee Johnson (backing vocals) / Track Listing: 1) Sad Old Red 2) Enough 3) Lost Weekend 4) A New Flame 5) Night Nurse 6) Something For You 7) You Make Me Feel Brand New 8) Home Loan Blues 9) Stars 10) Fake 11) Come To My Aid 12) Thrill Me 13) The Right Thing 14) Something Got Me Started 15) Holding Back The Years 16) Money s Too Tight To Mention 17) Fairground 18) Sunrise


INFO

TRACKLIST
1. Sad Old Red
2. Enough
3. Lost Weekend
4. A New Flame
5. Night Nurse
6. Something For You
7. You Make Me Feel Brand New
8. Home Loan Blues
9. Stars
10. Fake
11. Come To My Aid
12. Thrill Me
13. The Right Thing
14. Something Got Me Started
15. Holding Back the Years
16. Money's Too Tight To Mention
17. Fairground
18. Sunrise

RIP INFO
General
Unique ID : 174152953460764742528655000845815714503 (0x8304A388393A4CF6906D604EA46D12C7)
Complete name : H:\eMule\incoming\Simply.Red.Live.At.Montreux.2003.(2012).BluRay.720p.AC3-TST.mkv
Format : Matroska
Format version : Version 2
File size : 4.36 GiB
Duration : 1h 33mn
Overall bit rate : 6 671 Kbps
Encoded date : UTC 2013-01-19 00:10:26
Writing application : mkvmerge v5.8.0 ('No Sleep / Pillow') built on Sep 2 2012 15:37:04
Writing library : libebml v1.2.3 + libmatroska v1.3.0

Video
ID : 1
Format : AVC
Format/Info : Advanced Video Codec
Format profile : Main@L4.1
Format settings, CABAC : No
Format settings, ReFrames : 4 frames
Codec ID : V_MPEG4/ISO/AVC
Duration : 1h 33mn
Bit rate : 6 221 Kbps
Width : 1 280 pixels
Height : 720 pixels
Display aspect ratio : 16:9
Frame rate mode : Constant
Frame rate : 23.976 fps
Color space : YUV
Chroma subsampling : 4:2:0
Bit depth : 8 bits
Scan type : Progressive
Bits/(Pixel*Frame) : 0.282
Stream size : 3.98 GiB (91%)
Writing library : x264 core 128 r2216 198a7ea
Encoding settings : cabac=0 / ref=4 / deblock=0:-1:-1 / analyse=0:0 / me=dia / subme=0 / psy=1 / psy_rd=1.00:0.15 / mixed_ref=0 / me_range=16 / chroma_me=1 / trellis=0 / 8x8dct=0 / cqm=0 / deadzone=21,11 / fast_pskip=1 / chroma_qp_offset=0 / threads=1 / lookahead_threads=1 / sliced_threads=0 / nr=0 / decimate=1 / interlaced=0 / bluray_compat=0 / constrained_intra=0 / bframes=4 / b_pyramid=2 / b_adapt=0 / b_bias=0 / direct=1 / weightb=0 / open_gop=0 / weightp=0 / keyint=250 / keyint_min=23 / scenecut=0 / intra_refresh=0 / rc=2pass / mbtree=0 / bitrate=6221 / ratetol=1.0 / qcomp=0.60 / qpmin=0 / qpmax=69 / qpstep=4 / cplxblur=20.0 / qblur=0.5 / ip_ratio=1.40 / pb_ratio=1.30 / aq=0
Default : Yes
Forced : No

Audio
ID : 2
Format : AC-3
Format/Info : Audio Coding 3
Mode extension : CM (complete main)
Format settings, Endianness : Big
Codec ID : A_AC3
Duration : 1h 33mn
Bit rate mode : Constant
Bit rate : 448 Kbps
Channel(s) : 6 channels
Channel positions : Front: L C R, Side: L R, LFE
Sampling rate : 48.0 KHz
Bit depth : 16 bits
Compression mode : Lossy
Stream size : 300 MiB (7%)
Language : English
Default : Yes
Forced : No

Menu
00:00:00.000 : en:00:00:00.000
00:06:29.089 : en:00:06:29.089
00:12:49.569 : en:00:12:49.569
00:17:06.726 : en:00:17:06.726
00:21:07.399 : en:00:21:07.399
00:24:47.619 : en:00:24:47.619
00:31:17.776 : en:00:31:17.776
00:36:30.255 : en:00:36:30.255
00:41:34.492 : en:00:41:34.492
00:45:49.046 : en:00:45:49.046
00:49:46.250 : en:00:49:46.250
00:53:54.431 : en:00:53:54.431
00:59:25.362 : en:00:59:25.362
01:04:04.641 : en:01:04:04.641
01:10:18.848 : en:01:10:18.848
01:14:52.121 : en:01:14:52.121
01:22:48.864 : en:01:22:48.864
01:28:22.497 : en:01:28:22.497



KAD
Simply.Red.Live.At.Montreux.2003.(2012).BluRay.720p.AC3-TST.mkv  [4.36 Gb]

Post Reply

Return to “Music Videos”