Full Metal Panic! The Second Raid COMPLETE XviD (ASH) Anime

Any Quality Anime Series Releases

Moderators: Geo66, Admins

Post Reply
User avatar
lizard
Phantom VIP
Phantom VIP
Posts: 1866
Joined: September 30th 2007 - 2:34 am
P2P Clients: Torrent & DDL
Location: Bathroom....

Full Metal Panic! The Second Raid COMPLETE XviD (ASH) Anime

Post by lizard » June 17th 2011 - 11:33 am

Full Metal Panic! The Second Raid COMPLETE XviD (ASH) (Anime)
Image
http://www.imdb.com/title/tt0451991/
http://www.animenewsnetwork.com/encyclo ... hp?id=4449
(TV Series 2005)
TV_14 Action | Adventure | Animation 8.4/10
Users: (508 votes) 1 review | Critics: 5 reviews

This series is set about two months after the events ocurred in the Tuatha de Danaan at the end of the original series. Mithril becomes aware of a secret organization that has technology able to counter the ECS (Electronic Cloaking System) mode. This organization, known as Amalgam, also has “Black Technology”, obtained from “Whispered” like Kaname Chidori, and like the other intelligency agencies, they intend to obtain more. However, when Sousuke’s mission to protect Chidori is terminated by Mithril, all seems to be in place for Amalgam’s plans… Like many of its fans know, it is based of the FMP novel “The End of Day by Day.”

Director:
Yasuhiro Takemoto
Writer:
Shikidouji (character conception)
Stars:
Tomokazu Seki, Satsuki Yukino and Yukana Nogami

Subtitles: English
Language: Japanese


image resized
Image
Image

 Full Metal Panic! The Second Raid COMPLETE XviD (ASH) (Anime), XviD 640 x 360 | MP3 VBR | 230 MB x 13, fileserve or megaupload links

Code: Select all

http://www.fileserve.com/list/RRasjaB
or
http://www.megaupload.com/?d=F1SK18HX
http://www.megaupload.com/?d=KDPPGZR7
http://www.megaupload.com/?d=MUDD52V7
http://www.megaupload.com/?d=4IW7Z7BA
http://www.megaupload.com/?d=9JRCLQZ7
http://www.megaupload.com/?d=OHB78WP2
http://www.megaupload.com/?d=EV5UB420
http://www.megaupload.com/?d=P07ZVE46
http://www.megaupload.com/?d=DJX11AB2
http://www.megaupload.com/?d=C0V6MQT0
http://www.megaupload.com/?d=4H5OSXXA
http://www.megaupload.com/?d=A4FL3AHC
http://www.megaupload.com/?d=93W0531M

Code: Select all

Format                           : AVI
Format/Info                      : Audio Video Interleave
File size                        : 233 MiB
Duration                         : 23mn 36s
Overall bit rate                 : 1 378 Kbps
Writing application              : VirtualDubMod 1.5.10.1 (build 2439/release)
Writing library                  : VirtualDubMod build 2439/release

Video
ID                               : 0
Format                           : MPEG-4 Visual
Format profile                   : Advanced Simple@L5
Format settings, BVOP            : 2
Format settings, QPel            : No
Format settings, GMC             : No warppoints
Format settings, Matrix          : Default (H.263)
Muxing mode                      : Packed bitstream
Codec ID                         : XviD
Codec ID/Hint                    : XviD
Duration                         : 23mn 36s
Bit rate                         : 1 239 Kbps
Width                            : 640 pixels
Height                           : 360 pixels
Display aspect ratio             : 16:9
Frame rate                       : 29.970 fps
Color space                      : YUV
Chroma subsampling               : 4:2:0
Bit depth                        : 8 bits
Scan type                        : Progressive
Compression mode                 : Lossy
Bits/(Pixel*Frame)               : 0.179
Stream size                      : 209 MiB (90%)
Writing library                  : XviD 1.0.3 (UTC 2004-12-20)

Audio
ID                               : 1
Format                           : MPEG Audio
Format version                   : Version 1
Format profile                   : Layer 3
Mode                             : Joint stereo
Mode extension                   : MS Stereo
Codec ID                         : 55
Codec ID/Hint                    : MP3
Duration                         : 23mn 36s
Bit rate mode                    : Constant
Bit rate                         : 128 Kbps
Channel(s)                       : 2 channels
Sampling rate                    : 48.0 KHz
Compression mode                 : Lossy
Stream size                      : 21.6 MiB (9%)
Alignment                        : Split accross interleaves
Interleave, duration             : 33 ms (1.00 video frame)
Interleave, preload duration     : 500 ms
Image
I Know What Boys Like!

Post Reply

Return to “Anime Releases”