Fruits Basket COMPLETE XviD (BakaMX) (AKU) (Anime)

Any Quality Anime Series Releases

Moderators: Geo66, Admins

Post Reply
User avatar
lizard
Phantom VIP
Phantom VIP
Posts: 1866
Joined: September 30th 2007 - 2:34 am
P2P Clients: Torrent & DDL
Location: Bathroom....

Fruits Basket COMPLETE XviD (BakaMX) (AKU) (Anime)

Post by lizard » June 17th 2011 - 10:37 am

Fruits Basket COMPLETE XviD (BakaMX) (AKU) (Anime)
Image
http://www.imdb.com/title/tt0328738/
http://www.animenewsnetwork.com/encyclo ... php?id=348
(TV Series 2001)
Animation | Comedy | Drama 8.5/10
Users: (1,233 votes) 37 reviews | Critics: 1 reviews

Tohru Honda is 16 year old orphaned girl who gets invited to live in the house of her classmate, the handsome boy Sohma Yuki, and his cousins, 16 year old Kyo and 27 year old Shigure. However, these young men and parts of the rest of their family (both close and distant) hold a curse; if they are hugged by the opposite gender, they transform into animals of the Chinese Zodiac. Everyday is an adventure for sweet Tohru, as she gets to know everyone in the large family better (especially Yuki and Kyo), in both common and bizarre situations. But, the Sohma Family curse is certainly no laughing matter… it also holds horrible cruelity and heartbreak.

Director:
Nagisa Miyazaki
Stars:
Laura Bailey, Eric Vale and Yui Horie

Subtitles: English
Language: Japanese

 Fruits Basket COMPLETE XviD (BakaMX) (AKU) (Anime), XviD | MP3 VBR | ~150 MB x 26, fileserve or megaupload links

Code: Select all

http://www.fileserve.com/list/b4ArbNz
or
http://www.megaupload.com/?d=4UCI28RP
http://www.megaupload.com/?d=7EOO5TEY
http://www.megaupload.com/?d=4TI0RH6L
http://www.megaupload.com/?d=MWDVG6XM
http://www.megaupload.com/?d=XPQHJVOF
http://www.megaupload.com/?d=8IWAKK4W
http://www.megaupload.com/?d=I5TQUQ11
http://www.megaupload.com/?d=MPYJ4AL6
http://www.megaupload.com/?d=106GLNLI
http://www.megaupload.com/?d=TE60RYYE
http://www.megaupload.com/?d=WX0TEMTN
http://www.megaupload.com/?d=SAWUEAT3
http://www.megaupload.com/?d=VRUIZ9HG
http://www.megaupload.com/?d=6XHMX95W
http://www.megaupload.com/?d=Q3419SZ0
http://www.megaupload.com/?d=SR83R2O3
http://www.megaupload.com/?d=CYFW380Q
http://www.megaupload.com/?d=EEAP4PL7
http://www.megaupload.com/?d=IEHJCSGR
http://www.megaupload.com/?d=H3Z1LI4E
http://www.megaupload.com/?d=JJ0N3OGQ
http://www.megaupload.com/?d=D5MA90QG
http://www.megaupload.com/?d=KY5HGKK5
http://www.megaupload.com/?d=JH2NR2VJ
http://www.megaupload.com/?d=11SA8KE5
http://www.megaupload.com/?d=768546WH

Code: Select all

Format                           : AVI
Format/Info                      : Audio Video Interleave
File size                        : 132 MiB
Duration                         : 23mn 30s
Overall bit rate                 : 787 Kbps
Writing library                  : VirtualDub build 12667/release

Video
ID                               : 0
Format                           : MPEG-4 Visual
Codec ID                         : DIV3
Codec ID/Hint                    : DivX 3 Low
Duration                         : 23mn 30s
Bit rate                         : 650 Kbps
Width                            : 480 pixels
Height                           : 360 pixels
Display aspect ratio             : 4:3
Frame rate                       : 23.976 fps
Color space                      : YUV
Chroma subsampling               : 4:2:0
Bit depth                        : 8 bits
Compression mode                 : Lossy
Bits/(Pixel*Frame)               : 0.157
Stream size                      : 109 MiB (83%)

Audio
ID                               : 1
Format                           : MPEG Audio
Format version                   : Version 1
Format profile                   : Layer 3
Mode                             : Joint stereo
Mode extension                   : MS Stereo
Codec ID                         : 55
Codec ID/Hint                    : MP3
Duration                         : 23mn 30s
Bit rate mode                    : Constant
Bit rate                         : 128 Kbps
Channel(s)                       : 2 channels
Sampling rate                    : 44.1 KHz
Compression mode                 : Lossy
Stream size                      : 21.5 MiB (16%)
Alignment                        : Split accross interleaves
Interleave, duration             : 42 ms (1.00 video frame)
Interleave, preload duration     : 499 ms
Image
I Know What Boys Like!

Post Reply

Return to “Anime Releases”