Full Metal Panic! COMPLETE XviD (MiXED) (Anime)

Any Quality Anime Series Releases

Moderators: Geo66, Admins

Post Reply
User avatar
lizard
Phantom VIP
Phantom VIP
Posts: 1866
Joined: September 30th 2007 - 2:34 am
P2P Clients: Torrent & DDL
Location: Bathroom....

Full Metal Panic! COMPLETE XviD (MiXED) (Anime)

Post by lizard » June 17th 2011 - 9:38 am

Full Metal Panic! COMPLETE XviD (MiXED) (Anime)
Image
http://www.imdb.com/title/tt0328739/
(TV Series 2002)
TV_14 Action | Comedy | Romance 7.8/10
Users: (915 votes) 14 reviews | Critics: 27 reviews

This anime is soooooo funny! The chemistry between the two lead characters is just amazing and you can’t help but laugh your ass off watching Souske try to fit into Chidori’s world. One of my top 5 =p

Kaname Chidori is your average teen in modern Japan. At least, that’s what she thought before a boy named Souske Sagara began following her around, acting like a totally paranoid military freak! Things start to be explained when her school trip is hijacked and taken to North Korea, where Kaname is kidnapped and told that she is a Whispered. the Whispered are genetic anomalies, beings born with vast amounts of incredibly advanced knowlegde of math, science, and technology. Souske comes to rescue her, revealing that he is a trained specialist in the secret military organization MITHRIL, sworn to protect the world and guard the Whispered from being misused by terrorists. Now with the knowledge of what she is and what Souske was sent to do, can she make her way through high school in one piece?

Director:
Kôichi Chigira
Stars:
Jason Douglas, Satsuki Yukino and Tomokazu Seki

Subtitles: English
Language: Japanese


image resized
Image
Image
 Full Metal Panic! COMPLETE XviD (MiXED) (Anime), XviD 640 x 480 | MP3 VBR | 230 MB x 24, fileserve or megaupload

Code: Select all

http://www.fileserve.com/list/APk4sXa
or
http://www.megaupload.com/?d=C7ZV4K67
http://www.megaupload.com/?d=5XFYM8K1
http://www.megaupload.com/?d=U0CWV7AJ
http://www.megaupload.com/?d=KXWK5F6J
http://www.megaupload.com/?d=9HKYJO5L
http://www.megaupload.com/?d=JEG5D170
http://www.megaupload.com/?d=7G7IG53F
http://www.megaupload.com/?d=QP1B34XN
http://www.megaupload.com/?d=WYWQZDN0
http://www.megaupload.com/?d=VOR8OQ2O
http://www.megaupload.com/?d=WWFD0OSL
http://www.megaupload.com/?d=X7KS75AQ
http://www.megaupload.com/?d=Y3US7T5P
http://www.megaupload.com/?d=Z8IFCCST
http://www.megaupload.com/?d=J4L1FOW0
http://www.megaupload.com/?d=Z37Z9C7T
http://www.megaupload.com/?d=Q1JGBYKP
http://www.megaupload.com/?d=AL1Y3DW0
http://www.megaupload.com/?d=XMV1BX5A
http://www.megaupload.com/?d=01MVWU2P
http://www.megaupload.com/?d=332AK994
http://www.megaupload.com/?d=V0JWBCAN
http://www.megaupload.com/?d=8TZZ9BW0
http://www.megaupload.com/?d=3R2KIXJ4

Code: Select all

Format                           : AVI
Format/Info                      : Audio Video Interleave
File size                        : 208 MiB
Duration                         : 22mn 27s
Overall bit rate                 : 1 295 Kbps
Movie name                       : Full Metal Panic - Episode 01
Director                         : Encoded by Himura
Commissioned by                  : HQA@EFnet
Subject                          : Full Metal Panic - Episode 01
Recorded date                    : Sat Jan 12 07:51:54 2002
Writing application              : Branded using BrandAvi4mIRC, written by Neighbour@
Original source medium           : TV
Copyright                        : AnimeInc & High Quality Anime
Comment                          : A kickass series, brought to you by two kickass groups ;)

Video
ID                               : 0
Format                           : MPEG-4 Visual
Codec ID                         : DIV3
Codec ID/Hint                    : DivX 3 Low
Duration                         : 22mn 27s
Bit rate                         : 1 158 Kbps
Width                            : 640 pixels
Height                           : 480 pixels
Display aspect ratio             : 4:3
Frame rate                       : 23.976 fps
Color space                      : YUV
Chroma subsampling               : 4:2:0
Bit depth                        : 8 bits
Compression mode                 : Lossy
Bits/(Pixel*Frame)               : 0.157
Stream size                      : 186 MiB (89%)

Audio
ID                               : 1
Format                           : MPEG Audio
Format version                   : Version 1
Format profile                   : Layer 3
Mode                             : Joint stereo
Mode extension                   : MS Stereo
Codec ID                         : 55
Codec ID/Hint                    : MP3
Duration                         : 22mn 24s
Bit rate mode                    : Constant
Bit rate                         : 128 Kbps
Channel(s)                       : 2 channels
Sampling rate                    : 48.0 KHz
Compression mode                 : Lossy
Stream size                      : 20.5 MiB (10%)
Alignment                        : Split accross interleaves
Interleave, duration             : 42 ms (1.00 video frame)
Interleave, preload duration     : 451 ms
Image
I Know What Boys Like!

Post Reply

Return to “Anime Releases”