Hellsing COMPLETE XviD (A-W) (Anime)

Any Quality Anime Series Releases

Moderators: Geo66, Admins

Post Reply
User avatar
lizard
Phantom VIP
Phantom VIP
Posts: 1866
Joined: September 30th 2007 - 2:34 am
P2P Clients: Torrent & DDL
Location: Bathroom....

Hellsing COMPLETE XviD (A-W) (Anime)

Post by lizard » June 17th 2011 - 9:25 am

Hellsing COMPLETE XviD (A-W) (Anime)
Image
http://www.imdb.com/title/tt0325547/
(TV Series 2001–2002)
"Herushingu" (original title)
TV_MA Action | Animation | Fantasy 8.2/10
Users: (2,912 votes) 34 reviews | Critics: 8 reviews

This is about as classic as it gets. Screw Twilight, Alucard will eat those guys for breakfast!

Vampires exist. It is the duty of Hellsing, an organization sponsored by the British government, to hide that frightening fact and protect the blissfully unaware populace. Along with its own personal army, Hellsing also has a few secret weapons. Alucard, an incredibly powerful vampire, has been controlled by Hellsing for years. Although he dislikes being a servant to the Hellsing family, he certainly enjoys his job as Hellsing’s vampire exterminator. Seras is a fledgling vampire and a former police woman. Although reluctant to embrace her new self, she is still a valuable member of the organization. Integra Hellsing, the current leader, is usually fully capable of fulfilling her duty, but lately, vampire activity has been on the rise. Unfortunately, the cause is more alarming than anything she could have imagined…

Creator:
Kohta Hirano
Stars:
Jôji Nakata, Yoshiko Sakakibara and Fumiko Orikasa

Subtitles: English
Language: Japanese


image resized
Image
Image

 Hellsing COMPLETE XviD (A-W) (Anime), XviD 640 x 480 | MP3 VBR | 273 MB x 13, fileserve or megaupload links

Code: Select all

http://www.fileserve.com/list/nauTJ7E
or
http://www.megaupload.com/?d=V9BLAGQC
http://www.megaupload.com/?d=MYDV6Q2C
http://www.megaupload.com/?d=ELCZ6R9U
http://www.megaupload.com/?d=RW5XIDI6
http://www.megaupload.com/?d=EGGRGAAE
http://www.megaupload.com/?d=SI0DKUA9
http://www.megaupload.com/?d=ZC8OGCHF
http://www.megaupload.com/?d=WX0XFZRY
http://www.megaupload.com/?d=FCDKB6SE
http://www.megaupload.com/?d=JD7OYNWM
http://www.megaupload.com/?d=GDF91470
http://www.megaupload.com/?d=RMZVX1R9
http://www.megaupload.com/?d=NTPHIDUP

Code: Select all

Format                           : AVI
Format/Info                      : Audio Video Interleave
File size                        : 273 MiB
Duration                         : 22mn 51s
Overall bit rate                 : 1 670 Kbps
Writing application              : VirtualDubMod 1.5.10.1 (build 2366/release)
Writing library                  : VirtualDubMod build 2366/release

Video
ID                               : 0
Format                           : MPEG-4 Visual
Format profile                   : Advanced Simple@L5
Format settings, BVOP            : 2
Format settings, QPel            : Yes
Format settings, GMC             : 3 warppoints
Format settings, Matrix          : Default (MPEG)
Muxing mode                      : Packed bitstream
Codec ID                         : XviD
Codec ID/Hint                    : XviD
Duration                         : 22mn 51s
Bit rate                         : 1 436 Kbps
Width                            : 640 pixels
Height                           : 480 pixels
Display aspect ratio             : 4:3
Frame rate                       : 23.976 fps
Color space                      : YUV
Chroma subsampling               : 4:2:0
Bit depth                        : 8 bits
Scan type                        : Progressive
Compression mode                 : Lossy
Bits/(Pixel*Frame)               : 0.195
Stream size                      : 235 MiB (86%)
Writing library                  : XviD 1.1.0 Beta1 (UTC 2005-01-16)

Audio
ID                               : 1
Format                           : MPEG Audio
Format version                   : Version 1
Format profile                   : Layer 3
Mode                             : Joint stereo
Mode extension                   : MS Stereo
Codec ID                         : 55
Codec ID/Hint                    : MP3
Duration                         : 22mn 51s
Bit rate mode                    : Constant
Bit rate                         : 224 Kbps
Channel(s)                       : 2 channels
Sampling rate                    : 48.0 KHz
Compression mode                 : Lossy
Stream size                      : 36.6 MiB (13%)
Alignment                        : Aligned on interleaves
Interleave, duration             : 42 ms (1.00 video frame)
Interleave, preload duration     : 504 ms
Image
I Know What Boys Like!

User avatar
psycopathx
Metal-Head Of Music
Metal-Head Of Music
Posts: 4967
Joined: June 26th 2006 - 11:53 pm
P2P Clients: eMule ZZUL .49c
Location: On The Run

Re: Hellsing COMPLETE XviD (A-W) (Anime)

Post by psycopathx » June 17th 2011 - 11:23 pm

good series :thumbup2:
Image

Post Reply

Return to “Anime Releases”