Chobits COMPLETE XviD (A-Keep) (AH) (A-Fury) (A-Net) (Anime)

Any Quality Anime Series Releases

Moderators: Geo66, Admins

Post Reply
User avatar
lizard
Phantom VIP
Phantom VIP
Posts: 1866
Joined: September 30th 2007 - 2:34 am
P2P Clients: Torrent & DDL
Location: Bathroom....

Chobits COMPLETE XviD (A-Keep) (AH) (A-Fury) (A-Net) (Anime)

Post by lizard » June 17th 2011 - 9:13 am

Chobits COMPLETE XviD (A-Keep) (AH) (A-Fury) (A-Net) (Anime)
Image
http://www.animenewsnetwork.com/encyclo ... php?id=357
http://www.imdb.com/title/tt0326672/
(TV Series 2002)
TV_14 30 min - Animation | Comedy | Drama 7.6/10
Users: (833 votes) 18 reviews | Critics: 8 reviews

Awww this is such a funny and sweet series. This is for all you cosplayers with the chii-ears every time i go to an anime convention lol.

In the near future, personal computers take the form attractive women, called Persocons. Hideki Motosuwa is a poor student who failed his entrance exams to get into college. Hideki is forced to move to the city, get a job, and attend cram school in hopes of passing the next college entrance exam. He finds a Persocon in a trash heap. She doesn’t seem to have any operating system at all, and only says “Chii”. As Hideki learns more about his Persocon (aptly named “Chii”), he finds that she is not of any known type, and most likely some sort of homemade model. Find out what happens between Hideki and his new Persocon, as she learns more about her environment, people, and life.

Stars:
Rie Tanaka, Crispin Freeman and Tomokazu Sugita


Subtitles: English
Language: Japanese


image resized
Image
Image

 Chobits COMPLETE XviD (A-Keep) (AH) (A-Fury) (A-Net) (Anime) XviD 640 x 480 | MP3 VBR | 175 MB x 27 + 40 MB, Fileserve or Megaupload links

Code: Select all

http://www.fileserve.com/list/jjKPnwJ
or
http://www.megaupload.com/?d=C1PSIQ88
http://www.megaupload.com/?d=AOZCNN13
http://www.megaupload.com/?d=G35Z922N
http://www.megaupload.com/?d=IWLP70FY
http://www.megaupload.com/?d=ZF5KAWEL
http://www.megaupload.com/?d=PSWWFFS9
http://www.megaupload.com/?d=5KPPN9T9
http://www.megaupload.com/?d=HJ0BTR2K
http://www.megaupload.com/?d=9CPXVY4I
http://www.megaupload.com/?d=EFGDHJQI
http://www.megaupload.com/?d=WRWVCYVG
http://www.megaupload.com/?d=NC4RIRH0
http://www.megaupload.com/?d=U73SF1CO
http://www.megaupload.com/?d=4F6PHK28
http://www.megaupload.com/?d=GYFW8OSK
http://www.megaupload.com/?d=9NHKU61I
http://www.megaupload.com/?d=GA5MPSDN
http://www.megaupload.com/?d=64864S6Y
http://www.megaupload.com/?d=1WP9V7Q7
http://www.megaupload.com/?d=HAMCJL9C
http://www.megaupload.com/?d=86EN8D8F
http://www.megaupload.com/?d=REFTCP6K
http://www.megaupload.com/?d=3NA3FBMW
http://www.megaupload.com/?d=E42CHQYD
http://www.megaupload.com/?d=F2TW9VH5
http://www.megaupload.com/?d=LXMMD4NI
http://www.megaupload.com/?d=HD6H1HII
http://www.megaupload.com/?d=W06QK45B

Code: Select all

Format                           : AVI
Format/Info                      : Audio Video Interleave
File size                        : 178 MiB
Duration                         : 24mn 9s
Overall bit rate                 : 1 028 Kbps
Movie name                       : ..:{Chobits}:..-..:{01}:..
Director                         : Presented by #Anime-Keep & #Animehaven @ irc.EnterTheGame.com
Subject                          : ..:{Chobits}:..-..:{01}:..
Writing application              : Nandub v1.0rc2
Writing library                  : Nandub build 1852/release
Copyright                        : NOT FOR SALE, AUCTION, OR RENT!

Video
ID                               : 0
Format                           : MPEG-4 Visual
Codec ID                         : DIV3
Codec ID/Hint                    : DivX 3 Low
Duration                         : 24mn 9s
Bit rate                         : 891 Kbps
Width                            : 640 pixels
Height                           : 480 pixels
Display aspect ratio             : 4:3
Frame rate                       : 23.976 fps
Color space                      : YUV
Chroma subsampling               : 4:2:0
Bit depth                        : 8 bits
Compression mode                 : Lossy
Bits/(Pixel*Frame)               : 0.121
Stream size                      : 154 MiB (87%)

Audio
ID                               : 1
Format                           : MPEG Audio
Format version                   : Version 1
Format profile                   : Layer 3
Mode                             : Joint stereo
Mode extension                   : MS Stereo
Codec ID                         : 55
Codec ID/Hint                    : MP3
Duration                         : 24mn 9s
Bit rate mode                    : Constant
Bit rate                         : 128 Kbps
Channel(s)                       : 2 channels
Sampling rate                    : 48.0 KHz
Compression mode                 : Lossy
Stream size                      : 22.1 MiB (12%)
Alignment                        : Split accross interleaves
Interleave, duration             : 42 ms (1.00 video frame)
Interleave, preload duration     : 500 ms
Image
I Know What Boys Like!

Post Reply

Return to “Anime Releases”