Death Note COMPLETE XviD (Animanda) (Kuro-Hana) (Ruberia) (A

Any Quality Anime Series Releases

Moderators: Geo66, Admins

Post Reply
User avatar
lizard
Phantom VIP
Phantom VIP
Posts: 1866
Joined: September 30th 2007 - 2:34 am
P2P Clients: Torrent & DDL
Location: Bathroom....

Death Note COMPLETE XviD (Animanda) (Kuro-Hana) (Ruberia) (A

Post by lizard » June 17th 2011 - 9:07 am

Death Note COMPLETE XviD (Animanda) (Kuro-Hana) (Ruberia) (Anime)
Image
http://www.animenewsnetwork.com/encyclo ... hp?id=6592
http://www.imdb.com/title/tt0877057/
(TV Series 2006–2007)
"Desu nôto" (original title)
TV_14 22 min - Animation | Crime | Drama 9.1/10
Users: (6,629 votes) 58 reviews | Critics: 13 reviews

Hands down, one of the best anime ever. EVER. This really keeps you at the edge of your seat, and the best thing is that you have no idea who to root for: hero or villain? Forget all those cop shows you’ve seen, it has absolutely NOTHING compared to the chase laid out in this series. This is a MUST MUST MUST watch!!

Yagami Light is an ace student with great prospects, who’s bored out of his mind. One day he finds the “Death Note”: a notebook from the realm of the Death Gods, with the power to kill people in any way he desires, just by writing their name down. With the Death Note in hand, Light decides to create his perfect world, without crime or criminals, serving out his own personal brand of criminal justice. But trust me, he’s no hero. This will help create one of anime’s most bad-ass villains ever. However, when criminals start dropping dead one by one, the authorites send the legendary detective L to track down the killer, and a battle of wits, deception and logic ensues…

This is the ultimate showdown battle of genius minds. Think House vs… House. It doesn’t get more epic than that. An intricate, complex game of cat and mouse between L and Light. Can L stop Light from killing people? Can Light evade L’s amazing detective skills? It’s a definite thrill of a ride, nail-biting anime with every episode that passes and you won’t know who to root for.

Stars:
Brian Drummond, Andrew Francis and Alessandro Juliani

Subtitles: English
Language: Japanese


image resized
Image
Image
Image

 Death Note COMPLETE XviD (Animanda) (Kuro-Hana) (Ruberia) (Anime) XviD 704 x 396 | MP3 VBR | 175 MB x 37, fileserve or megaupload links

Code: Select all

http://www.fileserve.com/list/h6SKbM7
or
http://www.megaupload.com/?d=CCGUJVY1
http://www.megaupload.com/?d=Q27KE4UB
http://www.megaupload.com/?d=ARIB75GM
http://www.megaupload.com/?d=6QS9G5L1
http://www.megaupload.com/?d=7UPX2GL4
http://www.megaupload.com/?d=2MQ33QRM
http://www.megaupload.com/?d=0YCNW4BJ
http://www.megaupload.com/?d=OBYMMUGF
http://www.megaupload.com/?d=LTPGH3RC
http://www.megaupload.com/?d=XO02FGIJ
http://www.megaupload.com/?d=4QN9L92I
http://www.megaupload.com/?d=1N5ICPK0
http://www.megaupload.com/?d=SC7YEA8X
http://www.megaupload.com/?d=VMGF5SD4
http://www.megaupload.com/?d=BF1CLOVZ
http://www.megaupload.com/?d=T80ND50V
http://www.megaupload.com/?d=967NR2IA
http://www.megaupload.com/?d=QR3RJRW8
http://www.megaupload.com/?d=ZJZPMS3T
http://www.megaupload.com/?d=JWXZ92G0
http://www.megaupload.com/?d=M1NE8MXR
http://www.megaupload.com/?d=4S52VUKO
http://www.megaupload.com/?d=B44GVQAI
http://www.megaupload.com/?d=RAGF0XYF
http://www.megaupload.com/?d=WKGX56WH
http://www.megaupload.com/?d=21A06ZQJ
http://www.megaupload.com/?d=S4UJRWD0
http://www.megaupload.com/?d=TXSDB9U1
http://www.megaupload.com/?d=NN9CBD51
http://www.megaupload.com/?d=TU46LBW9
http://www.megaupload.com/?d=FV9MKPXB
http://www.megaupload.com/?d=Z89C64KM
http://www.megaupload.com/?d=D363E0A2
http://www.megaupload.com/?d=I5UQSWAG
http://www.megaupload.com/?d=BNRFJZNU
http://www.megaupload.com/?d=PC30L7Q0
http://www.megaupload.com/?d=7FUUDA2E

Code: Select all

Format                           : AVI
Format/Info                      : Audio Video Interleave
File size                        : 175 MiB
Duration                         : 22mn 44s
Overall bit rate                 : 1 076 Kbps
Writing application              : Nandub v1.0rc2
Writing library                  : Nandub build 1852/release

Video
ID                               : 0
Format                           : MPEG-4 Visual
Format profile                   : Advanced Simple@L5
Format settings, BVOP            : 2
Format settings, QPel            : No
Format settings, GMC             : No warppoints
Format settings, Matrix          : Default (H.263)
Muxing mode                      : Packed bitstream
Codec ID                         : XviD
Codec ID/Hint                    : XviD
Duration                         : 22mn 44s
Bit rate                         : 940 Kbps
Width                            : 704 pixels
Height                           : 396 pixels
Display aspect ratio             : 16:9
Frame rate                       : 23.976 fps
Color space                      : YUV
Chroma subsampling               : 4:2:0
Bit depth                        : 8 bits
Scan type                        : Progressive
Compression mode                 : Lossy
Bits/(Pixel*Frame)               : 0.141
Stream size                      : 153 MiB (87%)
Writing library                  : XviD 1.1.0 (UTC 2005-11-22)

Audio
ID                               : 1
Format                           : MPEG Audio
Format version                   : Version 1
Format profile                   : Layer 3
Mode                             : Joint stereo
Mode extension                   : MS Stereo
Codec ID                         : 55
Codec ID/Hint                    : MP3
Duration                         : 22mn 44s
Bit rate mode                    : Variable
Bit rate                         : 123 Kbps
Channel(s)                       : 2 channels
Sampling rate                    : 48.0 KHz
Compression mode                 : Lossy
Stream size                      : 20.0 MiB (11%)
Alignment                        : Aligned on interleaves
Interleave, duration             : 24 ms (0.58 video frame)
Interleave, preload duration     : 497 ms
Image
I Know What Boys Like!

Post Reply

Return to “Anime Releases”