Cardcaptor Sakura COMPLETE XviD (O-A) (Anime)

Any Quality Anime Series Releases

Moderators: Geo66, Admins

Post Reply
User avatar
lizard
Phantom VIP
Phantom VIP
Posts: 1866
Joined: September 30th 2007 - 2:34 am
P2P Clients: Torrent & DDL
Location: Bathroom....

Cardcaptor Sakura COMPLETE XviD (O-A) (Anime)

Post by lizard » June 17th 2011 - 6:02 am

Cardcaptor Sakura COMPLETE XviD (O-A) (Anime)
Image
http://www.animenewsnetwork.com/encyclo ... php?id=126
http://fmtvsite.tumblr.com/tagged/Cardcaptor%20Sakura
http://www.imdb.com/title/tt0221735/
(TV Series 1998–2000)
TV_Y7 30 min - Animation | Action | Adventure 8.0/10
Users: (576 votes) 27 reviews | Critics: 2 reviews
Haha who else grew up with this show blasting on the Kid’s WB every day after school?

Sakura Kinomoto was an ordinary 4th grader until the day she opened a strange book and let dozens of powerful magic cards loose on the world. Keroberos, the Guardian of the Clow Cards, informs Sakura that it is now her responsibility to find and capture the freed cards. However, much to the reluctant Sakura’s dismay, things aren’t going to be easy for her; simply saying magic words and waving her wand around isn’t good enough. Each card is a living, thinking, extremely powerful being. She’ll have to learn to cope with her new responsibilities, as well as ordinary troubles involving love, school, family, and friends. With the support of her friend Tomoyo and a young boy with powers of his own, she must learn how to use her newly awakened magical abilities to collect each card and prevent the disaster that will befall the world if she doesn’t.

Subtitles: English
Language: Japanese
 Cardcaptor.Sakura.COMPLETE.XviD.(O-A) XviD 640 x 480 | MP3 VBR | 162 MB x 70 files, FILESERVE, MEGAUPLOAD OR WUPLOAD Links, encoded by omega

Code: Select all

http://www.wupload.com/folder/15539
or
http://www.fileserve.com/list/3NCEkBq
or
http://www.megaupload.com/?d=WBJMLYPO
http://www.megaupload.com/?d=FQ12G43O
http://www.megaupload.com/?d=BZJS55H0
http://www.megaupload.com/?d=PA5K9TP3
http://www.megaupload.com/?d=WG8AYPCU
http://www.megaupload.com/?d=1UD47IC1
http://www.megaupload.com/?d=6E8AJVDW
http://www.megaupload.com/?d=V4140SC0
http://www.megaupload.com/?d=TLCUYOEW
http://www.megaupload.com/?d=JSC4490B
http://www.megaupload.com/?d=4V2K5HS7
http://www.megaupload.com/?d=DN3YA0RN
http://www.megaupload.com/?d=STGHNDWA
http://www.megaupload.com/?d=EJF5ZSVI
http://www.megaupload.com/?d=USMBYCNX
http://www.megaupload.com/?d=6UNZ1RI1
http://www.megaupload.com/?d=FPW6EWRY
http://www.megaupload.com/?d=BEIOP996
http://www.megaupload.com/?d=FETBMNMM
http://www.megaupload.com/?d=QE48A4PE
http://www.megaupload.com/?d=QD2JA3NG
http://www.megaupload.com/?d=WR2HX6PH
http://www.megaupload.com/?d=CLCUCU8R
http://www.megaupload.com/?d=6LQFT5KE
http://www.megaupload.com/?d=NXWZCY26
http://www.megaupload.com/?d=8VCACQ4Z
http://www.megaupload.com/?d=0VYXDFH4
http://www.megaupload.com/?d=P5LV1HQY
http://www.megaupload.com/?d=U4B4IXY7
http://www.megaupload.com/?d=3MRDBZLF
http://www.megaupload.com/?d=BEOFR997
http://www.megaupload.com/?d=3FEVK8T8
http://www.megaupload.com/?d=93UGG3VC
http://www.megaupload.com/?d=U92PVI60
http://www.megaupload.com/?d=VSETMZ6E
http://www.megaupload.com/?d=9AEHFQ99
http://www.megaupload.com/?d=P6FMWLRS
http://www.megaupload.com/?d=Q9DNGOMI
http://www.megaupload.com/?d=KZNTWOTO
http://www.megaupload.com/?d=6BGYNQAZ
http://www.megaupload.com/?d=VUCTSQJK
http://www.megaupload.com/?d=YHJX9FLD
http://www.megaupload.com/?d=3JBIVQ7D
http://www.megaupload.com/?d=LQP2VIL0
http://www.megaupload.com/?d=OZOEL9A0
http://www.megaupload.com/?d=6JSO1P28
http://www.megaupload.com/?d=AKN3MVUV
http://www.megaupload.com/?d=1K70VM0S
http://www.megaupload.com/?d=QC8F355B
http://www.megaupload.com/?d=0STJ55OM
http://www.megaupload.com/?d=GHEOHM4E
http://www.megaupload.com/?d=7RTJ2NR6
http://www.megaupload.com/?d=H98224V7
http://www.megaupload.com/?d=385Q1K7C
http://www.megaupload.com/?d=XDW5VZ8U
http://www.megaupload.com/?d=SMEA0GN2
http://www.megaupload.com/?d=VVSD7Y8W
http://www.megaupload.com/?d=SNDCVXFX
http://www.megaupload.com/?d=KTOSIFXU
http://www.megaupload.com/?d=UV0GDW8J
http://www.megaupload.com/?d=UHWORDH8
http://www.megaupload.com/?d=0GUWPT3Q
http://www.megaupload.com/?d=T967G4K4
http://www.megaupload.com/?d=IVDWRRZJ
http://www.megaupload.com/?d=4Y8430V2
http://www.megaupload.com/?d=F14TDXIZ
http://www.megaupload.com/?d=OP1NDZX0
http://www.megaupload.com/?d=AIP3E2K8
http://www.megaupload.com/?d=RHUL2IXR
http://www.megaupload.com/?d=M0EH1DOU
Image
Image

Code: Select all

Format                           : AVI
Format/Info                      : Audio Video Interleave
File size                        : 164 MiB
Duration                         : 25mn 0s
Overall bit rate                 : 920 Kbps
Writing application              : MEncoder dev-CVS-050928-16:38-3.4.2
Writing library                  : MPlayer

Video
ID                               : 0
Format                           : MPEG-4 Visual
Format profile                   : Simple@L1
Format settings, BVOP            : No
Format settings, QPel            : No
Format settings, GMC             : No warppoints
Format settings, Matrix          : Default (H.263)
Codec ID                         : XviD
Codec ID/Hint                    : XviD
Duration                         : 25mn 0s
Bit rate                         : 700 Kbps
Width                            : 640 pixels
Height                           : 480 pixels
Display aspect ratio             : 4:3
Frame rate                       : 23.976 fps
Color space                      : YUV
Chroma subsampling               : 4:2:0
Bit depth                        : 8 bits
Scan type                        : Progressive
Compression mode                 : Lossy
Bits/(Pixel*Frame)               : 0.095
Stream size                      : 125 MiB (76%)
Writing library                  : Lavc50.0.0

Audio
ID                               : 1
Format                           : MPEG Audio
Format version                   : Version 1
Format profile                   : Layer 3
Mode                             : Joint stereo
Codec ID                         : 55
Codec ID/Hint                    : MP3
Duration                         : 25mn 0s
Bit rate mode                    : Variable
Bit rate                         : 207 Kbps
Channel(s)                       : 2 channels
Sampling rate                    : 48.0 KHz
Compression mode                 : Lossy
Stream size                      : 37.0 MiB (22%)
Alignment                        : Aligned on interleaves
Interleave, duration             : 24 ms (0.58 video frame)
Interleave, preload duration     : 315 ms
Image
I Know What Boys Like!

Post Reply

Return to “Anime Releases”