David Bowie - Ziggy Stardust 1972 Remaster (2012)

Full album releases available on the ed2k network.
Post Reply
User avatar
Will-I-Am
Phantom
Phantom
Posts: 566
Joined: December 11th 2014 - 11:46 pm
P2P Clients: eMule & uTorrent
Location: The Big Apple
Has thanked: 4 times
Been thanked: 12 times
Contact:

David Bowie - Ziggy Stardust 1972 Remaster (2012)

Post by Will-I-Am » February 10th 2016 - 2:54 pm

Image

David Bowie - The Rise And Fall Of Ziggy Stardust And The Spiders From Mars (1972) [40th Anniv. Remaster] (2012)

Official Site - Wikipedia - Discogs - Allmusic
Allmusic wrote: Borrowing heavily from Marc Bolan's glam rock and the future shock of A Clockwork Orange, David Bowie reached back to the heavy rock of The Man Who Sold the World for The Rise & Fall of Ziggy Stardust & the Spiders from Mars. Constructed as a loose concept album about an androgynous alien rock star named Ziggy Stardust, the story falls apart quickly, yet Bowie's fractured, paranoid lyrics are evocative of a decadent, decaying future, and the music echoes an apocalyptic, nuclear dread. Fleshing out the off-kilter metallic mix with fatter guitars, genuine pop songs, string sections, keyboards, and a cinematic flourish, Ziggy Stardust is a glitzy array of riffs, hooks, melodrama, and style, and the logical culmination of glam. Mick Ronson plays with a maverick flair that invigorates rockers like "Suffragette City," "Moonage Daydream," and "Hang Onto Yourself," while "Lady Stardust," "Five Years," and "Rock 'n' Roll Suicide" have a grand sense of staged drama previously unheard of in rock & roll. And that self-conscious sense of theater is part of the reason why Ziggy Stardust sounds so foreign. Bowie succeeds not in spite of his pretensions but because of them, and Ziggy Stardust -- familiar in structure, but alien in performance -- is the first time his vision and execution met in such a grand, sweeping fashion.
[Unlike the 30th Anniversary edition of The Rise & Fall of Ziggy Stardust & the Spiders from Mars, which contained a full bonus disc consisting of 12 rarities, there are no bonus cuts on the 40th Anniversary edition of David Bowie's classic -- just a new remaster. On the deluxe 40th Anniversary edition, there is this bare-bones CD along with a heavy-grade vinyl replicating the original album, and then a DVD-Audio that contains the 2012 remaster and the 2003 5.1 remix…plus four bonus tracks of an instrumental "Moonage Daydream," "The Superman," "Velvet Goldmine," and "Sweet Head." Whether this warrants an upgrade is due entirely to the fan: they'll either be completists or will be quite satiated by the other deluxe and anniversary editions in their library.
Track-listing
01 - Five Years.flac
02 - Soul Love.flac
03 - Moonage Daydream.flac
04 - Starman.flac
05 - It Ain't Easy.flac
06 - Lady Stardust.flac
07 - Star.flac
08 - Hang On To Yourself.flac
09 - Ziggy Stardust.flac
10 - Suffragette City.flac
11 - Rock 'N' Roll Suicide.flac

Audio Info
Format : FLAC
Format/Info : Free Lossless Audio Codec
Combined Length : 38 minutes 37 seconds
Bit rate mode : Variable
Average Bit Rate : 858 Kbps
Channel(s) : 2 channels
Channel positions : Front: L R
Sampling rate : 44.1 KHz
Bit depth : 16 bits
Writing library : libFLAC 1.2.1 (UTC 2007-09-17)


Log
Spoiler: show
Exact Audio Copy V1.0 beta 3 from 29. August 2011

EAC extraction logfile from 22. June 2012, 19:25

David Bowie / The Rise & Fall Of Ziggy Stardust & Spiders From Mars

Used drive : HL-DT-STDVD-RAM GH22LP20 Adapter: 5 ID: 0

Read mode : Secure
Utilize accurate stream : Yes
Defeat audio cache : Yes
Make use of C2 pointers : No

Read offset correction : 102
Overread into Lead-In and Lead-Out : No
Fill up missing offset samples with silence : Yes
Delete leading and trailing silent blocks : No
Null samples used in CRC calculations : Yes
Used interface : Native Win32 interface for Win NT & 2000
Gap handling : Appended to previous track

Used output format : User Defined Encoder
Selected bitrate : 256 kBit/s
Quality : High
Add ID3 tag : No
Command line compressor : C:\Archivos de programa\Exact Audio Copy\FLAC\FLAC.EXE
Additional command line options : -8 -V -T "ARTIST=%artist%" -T "TITLE=%title%" -T "ALBUM=%albumtitle%" -T "DATE=%year%" -T "TRACKNUMBER=%tracknr%" -T "TOTALTRACKS=%numtracks%" -T "GENRE=%genre%" -T "ALBUMARTIST=%albumartist%" -T "ALBUM ARTIST=%albumartist%" -T "COMMENT=EAC Secure Mode, Test & Copy, AccurateRip, FLAC -8" %source%


TOC of the extracted CD

Track | Start | Length | Start sector | End sector
---------------------------------------------------------
1 | 0:00.00 | 4:43.56 | 0 | 21280
2 | 4:43.56 | 3:34.15 | 21281 | 37345
3 | 8:17.71 | 4:40.40 | 37346 | 58385
4 | 12:58.36 | 4:14.22 | 58386 | 77457
5 | 17:12.58 | 2:57.58 | 77458 | 90790
6 | 20:10.41 | 3:21.32 | 90791 | 105897
7 | 23:31.73 | 2:47.41 | 105898 | 118463
8 | 26:19.39 | 2:39.72 | 118464 | 130460
9 | 28:59.36 | 3:13.49 | 130461 | 144984
10 | 32:13.10 | 3:25.70 | 144985 | 160429
11 | 35:39.05 | 2:58.21 | 160430 | 173800


Track 1

Filename D:\flac rips\01 - Five Years.wav

Pre-gap length 0:00:02.00

Peak level 95.9 %
Extraction speed 1.7 X
Track quality 100.0 %
Test CRC 5EB1E6C4
Copy CRC 5EB1E6C4
Track not present in AccurateRip database
Copy OK

Track 2

Filename D:\flac rips\02 - Soul Love.wav

Peak level 97.8 %
Extraction speed 1.8 X
Track quality 100.0 %
Test CRC A7D5CF61
Copy CRC A7D5CF61
Track not present in AccurateRip database
Copy OK

Track 3

Filename D:\flac rips\03 - Moonage Daydream.wav

Peak level 92.7 %
Extraction speed 1.8 X
Track quality 99.9 %
Test CRC 9AB13297
Copy CRC 9AB13297
Track not present in AccurateRip database
Copy OK

Track 4

Filename D:\flac rips\04 - Starman.wav

Peak level 94.5 %
Extraction speed 1.9 X
Track quality 99.9 %
Test CRC F9838FBB
Copy CRC F9838FBB
Track not present in AccurateRip database
Copy OK

Track 5

Filename D:\flac rips\05 - It Ain't Easy.wav

Peak level 93.9 %
Extraction speed 2.2 X
Track quality 100.0 %
Test CRC 512FBB87
Copy CRC 512FBB87
Track not present in AccurateRip database
Copy OK

Track 6

Filename D:\flac rips\06 - Lady Stardust.wav

Peak level 92.4 %
Extraction speed 2.3 X
Track quality 100.0 %
Test CRC 971E1085
Copy CRC 971E1085
Track not present in AccurateRip database
Copy OK

Track 7

Filename D:\flac rips\07 - Star.wav

Peak level 95.6 %
Extraction speed 2.3 X
Track quality 100.0 %
Test CRC A59D51E0
Copy CRC A59D51E0
Track not present in AccurateRip database
Copy OK

Track 8

Filename D:\flac rips\08 - Hang On To Yourself.wav

Peak level 93.0 %
Extraction speed 2.4 X
Track quality 100.0 %
Test CRC 6CD20403
Copy CRC 6CD20403
Track not present in AccurateRip database
Copy OK

Track 9

Filename D:\flac rips\09 - Ziggy Stardust.wav

Peak level 94.8 %
Extraction speed 2.6 X
Track quality 100.0 %
Test CRC B17D8879
Copy CRC B17D8879
Track not present in AccurateRip database
Copy OK

Track 10

Filename D:\flac rips\10 - Suffragette City.wav

Peak level 98.2 %
Extraction speed 2.7 X
Track quality 100.0 %
Test CRC 8828E503
Copy CRC 8828E503
Track not present in AccurateRip database
Copy OK

Track 11

Filename D:\flac rips\11 - Rock 'N' Roll Suicide.wav

Peak level 93.0 %
Extraction speed 2.3 X
Track quality 99.9 %
Test CRC 71ED1773
Copy CRC 71ED1773
Track not present in AccurateRip database
Copy OK


None of the tracks are present in the AccurateRip database

No errors occurred

End of status report

==== Log checksum FA0C258FF0E291E75D3E9ED17182082B84FCECF35F9DC9B1F29D7CB09A3E375F ====
Test
Spoiler: show
Track [ CRC ] Status
01 [c67abca6] (09/209) Accurately ripped as in pressing(s) #3
02 [67fb98e1] (09/210) Accurately ripped as in pressing(s) #3
03 [566a51cc] (09/209) Accurately ripped as in pressing(s) #3
04 [d6cce7e5] (09/209) Accurately ripped as in pressing(s) #3
05 [24b3bcca] (09/209) Accurately ripped as in pressing(s) #3
06 [58f69e76] (09/209) Accurately ripped as in pressing(s) #3
07 [1c65296f] (09/209) Accurately ripped as in pressing(s) #3
08 [7a6bb3d2] (09/209) Accurately ripped as in pressing(s) #3
09 [67e33f63] (09/209) Accurately ripped as in pressing(s) #3
10 [15b4fc4c] (09/209) Accurately ripped as in pressing(s) #3
11 [7326488a] (09/207) Accurately ripped as in pressing(s) #3
Offseted by -36:
01 [5fdefe69] (05/209) Partial match to pressing(s) #4
02 [0dd45f40] (05/210) Partial match to pressing(s) #4
03 [1920b312] (05/209) Partial match to pressing(s) #4
04 [03ebae9f] (05/209) Partial match to pressing(s) #4
05 [764737dd] (05/209) Partial match to pressing(s) #4
06 [6ab905ee] (05/209) Partial match to pressing(s) #4
07 [7320c1f7] (05/209) Partial match to pressing(s) #4
08 [27ee9629] (05/209) Partial match to pressing(s) #4
09 [25e8a63c] (05/209) Partial match to pressing(s) #4
10 [77654815] (05/209) Partial match to pressing(s) #4
11 [0fba7670] (05/207) Partial match to pressing(s) #4
Offseted by 6:
01 [5a8adaf8] (09/209) Partial match to pressing(s) #3
02 [6a433e06] (09/210) Partial match to pressing(s) #3
03 [4d5941c5] (09/209) Partial match to pressing(s) #3
04 [a253cbd2] (09/209) Partial match to pressing(s) #3
05 [47f1fde6] (09/209) Partial match to pressing(s) #3
06 [6568eb20] (09/209) Partial match to pressing(s) #3
07 [c206a7a6] (09/209) Partial match to pressing(s) #3
08 [da5136a6] (09/209) Partial match to pressing(s) #3
09 [229168c5] (09/209) Partial match to pressing(s) #3
10 [5ce46950] (09/209) Partial match to pressing(s) #3
11 [7c641643] (09/207) Partial match to pressing(s) #3
Offseted by 12:
01 [eac7fe27] (05/209) Accurately ripped as in pressing(s) #4
02 [c39666ba] (05/210) Accurately ripped as in pressing(s) #4
03 [762a3d0d] (05/209) Accurately ripped as in pressing(s) #4
04 [c709ad71] (05/209) Accurately ripped as in pressing(s) #4
05 [0a77fe8a] (05/209) Accurately ripped as in pressing(s) #4
06 [e5f62201] (05/209) Accurately ripped as in pressing(s) #4
07 [7cd4a858] (05/209) Accurately ripped as in pressing(s) #4
08 [7a336beb] (05/209) Accurately ripped as in pressing(s) #4
09 [a746464c] (05/209) Accurately ripped as in pressing(s) #4
10 [93647c2c] (05/209) Accurately ripped as in pressing(s) #4
11 [842b1feb] (05/207) Accurately ripped as in pressing(s) #4

Track [ CRC32 ] [W/O NULL]
01 [5EB1E6C4] [7CEB89FD]
02 [A7D5CF61] [A7768623]
03 [9AB13297] [5638BEB8]
04 [F9838FBB] [7DCD3486]
05 [512FBB87] [1F62EED1]
06 [971E1085] [360EBD12]
07 [A59D51E0] [A631F7E7]
08 [6CD20403] [917A5B85]
09 [B17D8879] [63ADCF07]
10 [8828E503] [3A95056C]
11 [71ED1773] [A52F3A40]

***********************************************************************************************

AUDIOCHECKER v2.0 beta (build 457) - by Dester - opdester@freemail.hu
~~~~~~~~~~~~~~~~~~~~~~~~~~~~~~~~~~

Started at: Monday, 08. 02. 2016. - 15:18.29
11 files found

01 -===- D:\David.Bowie.-.The.Rise.And.Fall.Of.Ziggy.Stardust.And.The.Spiders.From.Mars.1972.40th.Anniversary.2012.RCA.Remaster.(FLAC)-Torrentinto.[sharethefiles.com]\01 - Five Years.flac
Extracted successfully
Conclusion: this track is CDDA with probability 100%
Tempfile successfully deleted.

02 -===- D:\David.Bowie.-.The.Rise.And.Fall.Of.Ziggy.Stardust.And.The.Spiders.From.Mars.1972.40th.Anniversary.2012.RCA.Remaster.(FLAC)-Torrentinto.[sharethefiles.com]\02 - Soul Love.flac
Extracted successfully
Conclusion: this track is CDDA with probability 100%
Tempfile successfully deleted.

03 -===- D:\David.Bowie.-.The.Rise.And.Fall.Of.Ziggy.Stardust.And.The.Spiders.From.Mars.1972.40th.Anniversary.2012.RCA.Remaster.(FLAC)-Torrentinto.[sharethefiles.com]\03 - Moonage Daydream.flac
Extracted successfully
Conclusion: this track is CDDA with probability 100%
Tempfile successfully deleted.

04 -===- D:\David.Bowie.-.The.Rise.And.Fall.Of.Ziggy.Stardust.And.The.Spiders.From.Mars.1972.40th.Anniversary.2012.RCA.Remaster.(FLAC)-Torrentinto.[sharethefiles.com]\04 - Starman.flac
Extracted successfully
Conclusion: this track is CDDA with probability 99%
Tempfile successfully deleted.

05 -===- D:\David.Bowie.-.The.Rise.And.Fall.Of.Ziggy.Stardust.And.The.Spiders.From.Mars.1972.40th.Anniversary.2012.RCA.Remaster.(FLAC)-Torrentinto.[sharethefiles.com]\05 - It Ain't Easy.flac
Extracted successfully
Conclusion: this track is CDDA with probability 99%
Tempfile successfully deleted.

06 -===- D:\David.Bowie.-.The.Rise.And.Fall.Of.Ziggy.Stardust.And.The.Spiders.From.Mars.1972.40th.Anniversary.2012.RCA.Remaster.(FLAC)-Torrentinto.[sharethefiles.com]\06 - Lady Stardust.flac
Extracted successfully
Conclusion: this track is CDDA with probability 100%
Tempfile successfully deleted.

07 -===- D:\David.Bowie.-.The.Rise.And.Fall.Of.Ziggy.Stardust.And.The.Spiders.From.Mars.1972.40th.Anniversary.2012.RCA.Remaster.(FLAC)-Torrentinto.[sharethefiles.com]\07 - Star.flac
Extracted successfully
Conclusion: this track is CDDA with probability 100%
Tempfile successfully deleted.

08 -===- D:\David.Bowie.-.The.Rise.And.Fall.Of.Ziggy.Stardust.And.The.Spiders.From.Mars.1972.40th.Anniversary.2012.RCA.Remaster.(FLAC)-Torrentinto.[sharethefiles.com]\08 - Hang On To Yourself.flac
Extracted successfully
Conclusion: this track is CDDA with probability 100%
Tempfile successfully deleted.

09 -===- D:\David.Bowie.-.The.Rise.And.Fall.Of.Ziggy.Stardust.And.The.Spiders.From.Mars.1972.40th.Anniversary.2012.RCA.Remaster.(FLAC)-Torrentinto.[sharethefiles.com]\09 - Ziggy Stardust.flac
Extracted successfully
Conclusion: this track is CDDA with probability 100%
Tempfile successfully deleted.

10 -===- D:\David.Bowie.-.The.Rise.And.Fall.Of.Ziggy.Stardust.And.The.Spiders.From.Mars.1972.40th.Anniversary.2012.RCA.Remaster.(FLAC)-Torrentinto.[sharethefiles.com]\10 - Suffragette City.flac
Extracted successfully
Conclusion: this track is CDDA with probability 100%
Tempfile successfully deleted.

11 -===- D:\David.Bowie.-.The.Rise.And.Fall.Of.Ziggy.Stardust.And.The.Spiders.From.Mars.1972.40th.Anniversary.2012.RCA.Remaster.(FLAC)-Torrentinto.[sharethefiles.com]\11 - Rock 'N' Roll Suicide.flac
Extracted successfully
Conclusion: this track is CDDA with probability 99%
Tempfile successfully deleted.


Finished at: Monday, 08. 02. 2016. - 15:21.49 (operation time: 0:03.19)

********************************************************************************************

Item: 01 - Five Years.flac
MD5: 8ABC3EDAC0939F9B0BBC6A6D992F6DC0
CRC32: 5EB1E6C4
No problems found.

Item: 02 - Soul Love.flac
MD5: 20B1BBB949F8F2988415F2ED747ECAF0
CRC32: A7D5CF61
No problems found.

Item: 03 - Moonage Daydream.flac
MD5: 7C66ACE9CF0A5BEEEE7CBB95F720B606
CRC32: 9AB13297
No problems found.

Item: 04 - Starman.flac
MD5: 86EFC0CC6E57FCDF791911193CC86AB4
CRC32: F9838FBB
No problems found.

Item: 05 - It Ain't Easy.flac
MD5: 5B80A9027BBD2A42E2F8FA34506BEDE3
CRC32: 512FBB87
No problems found.

Item: 06 - Lady Stardust.flac
MD5: D242DB7A2E3BB020C04ED52400EF484B
CRC32: 971E1085
No problems found.

Item: 07 - Star.flac
MD5: 790F32F4642205B1F13C77655ED2FD55
CRC32: A59D51E0
No problems found.

Item: 08 - Hang On To Yourself.flac
MD5: 261D88605CACD3CAE188FC6003CB91C4
CRC32: 6CD20403
No problems found.

Item: 09 - Ziggy Stardust.flac
MD5: 7A06DE675B6D84BCEEE1FC59CDE26F47
CRC32: B17D8879
No problems found.

Item: 10 - Suffragette City.flac
MD5: 8D70F79440655C0792BCA783A7887F9B
CRC32: 8828E503
No problems found.

Item: 11 - Rock 'N' Roll Suicide.flac
MD5: EFF9C1BF6EBADF5599792D4E7DC1BE50
CRC32: 71ED1773
No problems found.


All items decoded successfully.

not-the-infidel
New Member
New Member
Posts: 14
Joined: April 9th 2017 - 10:27 pm
P2P Clients: amule ubuntu) vuze (winshit7)

Re: David Bowie - Ziggy Stardust 1972 Remaster (2012)

Post by not-the-infidel » April 15th 2017 - 8:31 pm

:cheers:

sandyp
Supporter
Supporter
Posts: 14263
Joined: May 25th 2010 - 2:24 pm
Location: scotland
Has thanked: 260 times
Been thanked: 407 times

Re: David Bowie - Ziggy Stardust 1972 Remaster (2012)

Post by sandyp » May 15th 2017 - 1:34 am

nicee will bud
:-) :-) :-) :-) :-)

Post Reply

Return to “Albums”

Who is online

Users browsing this forum: No registered users and 5 guests