The Woman 2011 DVDScr AC3 XviD HQ Hive-CM8

Direct Download links for Sub-Retail Movie Releases. : DVDScr, R5, DDC, PPVRip and Workprint.

Moderator: Admins

Post Reply
User avatar
drcoolmor
Global Moderator
Global Moderator
Posts: 26407
Joined: June 7th 2010 - 1:12 am
P2P Clients: eMule
Azureus
Has thanked: 3 times
Been thanked: 813 times

The Woman 2011 DVDScr AC3 XviD HQ Hive-CM8

Post by drcoolmor » June 1st 2011 - 2:01 pm

Image

When a successful country lawyer captures and attempts to “civilize” the last remaining member of a violent clan that has roamed the Northeast coast for decades, he puts the lives of his family in jeopardy.

Image
Image
Image


Genre: Horror
IMDB rating: 8.5/10
Directed by: Lucky McKee
Starring: Carlee Baker, Shana Barry and Marcia Bennett

Code: Select all


   1.
      The.Woman.2011.DVDScr.XviD.AC3.HQ.Hive-CM8
   2.
       
   3.
       
   4.
      Thx Hive
   5.
       
   6.
      CM8 Doing It Right The First Time
   7.
       
   8.
      ! Jack Ketchum´s new Horror Movie !
   9.
        !!     No known Cinemadate     !!
  10.
         !!!     IMDB Rating 8,5     !!!
  11.
       
  12.
      http://anythinghorror.com/2011/05/03/texas-frightmare-weekend-2011-film-premier-the-woman-2011/
  13.
       
  14.
      Encode:
  15.
      Source had great quality.
  16.
      It had a constant studio watermark at the right bottom corner, which i blurred away.
  17.
      Beside that i did the usual, sharpening,rgb,denoise and brightening up a bit for the darker parts.
  18.
      Enjoy that early movie
  19.
       
  20.
      Video: 720x400 @bitrate 1800 2pass
  21.
      Audio: English AC3 2.0 Stereo
  22.
      Sample: yes included
  23.
       
  24.
       
  25.
      http://www.imdb.com/title/tt1714208/
  26.
       
  27.
       
  28.
      General
  29.
      Complete name                    : The.Woman.2011.DVDScr.XviD.AC3.HQ.Hive-CM8.avi
  30.
      Format                           : AVI
  31.
      Format/Info                      : Audio Video Interleave
  32.
      File size                        : 1.49 GiB
  33.
      Duration                         : 1h 43mn
  34.
      Overall bit rate                 : 2 064 Kbps
  35.
      Writing application              : Nandub v1.0rc2
  36.
      Writing library                  : Nandub build 1853/release
  37.
       
  38.
      Video
  39.
      ID                               : 0
  40.
      Format                           : MPEG-4 Visual
  41.
      Format profile                   : Advanced Simple@L5
  42.
      Format settings, BVOP            : 2
  43.
      Format settings, QPel            : Yes
  44.
      Format settings, GMC             : No warppoints
  45.
      Format settings, Matrix          : Default (H.263)
  46.
      Muxing mode                      : Packed bitstream
  47.
      Codec ID                         : XviD
  48.
      Codec ID/Hint                    : XviD
  49.
      Duration                         : 1h 43mn
  50.
      Bit rate                         : 1 799 Kbps
  51.
      Width                            : 720 pixels
  52.
      Height                           : 400 pixels
  53.
      Display aspect ratio             : 16:9
  54.
      Frame rate                       : 25.000 fps
  55.
      Color space                      : YUV
  56.
      Chroma subsampling               : 4:2:0
  57.
      Bit depth                        : 8 bits
  58.
      Scan type                        : Progressive
  59.
      Compression mode                 : Lossy
  60.
      Bits/(Pixel*Frame)               : 0.250
  61.
      Stream size                      : 1.30 GiB (87%)
  62.
      Writing library                  : XviD 1.2.1 (UTC 2008-12-04)
  63.
       
  64.
      Audio
  65.
      ID                               : 1
  66.
      Format                           : AC-3
  67.
      Format/Info                      : Audio Coding 3
  68.
      Mode extension                   : CM (complete main)
  69.
      Codec ID                         : 2000
  70.
      Duration                         : 1h 43mn
  71.
      Bit rate mode                    : Constant
  72.
      Bit rate                         : 256 Kbps
  73.
      Channel(s)                       : 2 channels
  74.
      Channel positions                : Front: L R
  75.
      Sampling rate                    : 48.0 KHz
  76.
      Bit depth                        : 16 bits
  77.
      Compression mode                 : Lossy
  78.
      Delay relative to video          : 24ms
  79.
      Stream size                      : 189 MiB (12%)
  80.
      Alignment                        : Split accross interleaves
  81.
      Interleave, duration             : 40 ms (1.00 video frame)
  82.
      Interleave, preload duration     : 500 ms
  83.
       
  84.
       
  85.
       
  86.
      Carlee Baker ... Genevieve Raton
  87.
      Shana Barry ... Fat Tourist Girl - Cartoon
  88.
      Marcia Bennett ... Deana
  89.
      Angela Bettis ... Belle Cleek
  90.
      Sean Bridgers ... Chris Cleek
  91.
      Lauren Ashley Carter ... Peggy Cleek
  92.
       
  93.
       
  94.
      When a successful country lawyer captures and attempts to "civilize" the last
  95.
      remaining member of a violent clan that has roamed the Northeast coast for decades,
  96.
      he puts the lives of his family in jeopardy.  

Release Name: The.Woman.2011.DVDScr.XviD.AC3.HQ.Hive-CM8
Size: 898 mb
Video: XviD | 720×400 | 1799 Kbps | 25.000 fps
Audio: English | AC3 | 256 Kbps
Runtime: 1h 43mn
 The.Woman.2011.DVDScr.XviD.AC3.HQ.Hive-CM8

Code: Select all

http://www.fileserve.com/file/dDpdeMr/The.Woman.2011.DVDScr.XviD.AC3.HQ.Hive-CM8.avi

Code: Select all

http://oron.com/19a355nntfqd/The.Woman.2011.DVDScr.XviD.AC3.HQ.Hive-CM8.avi.html

Code: Select all

http://netload.in/datei9aGiXPB9xR/The.Woman.2011.DVDScr.XviD.AC3.HQ.Hive-CM8.avi.htm

Code: Select all

http://www.wupload.com/file/5043088/The.Woman.2011.DVDScr.XviD.AC3.HQ.Hive-CM8.avi

Code: Select all

http://www.filesonic.com/file/1099865771
http://www.filesonic.com/file/1099865791
http://www.filesonic.com/file/1099865911
http://www.filesonic.com/file/1099875031
http://www.filesonic.com/file/1099886151

Code: Select all

http://www.wupload.com/file/5156506
http://www.wupload.com/file/5156622
http://www.wupload.com/file/5156627
http://www.wupload.com/file/5156634
http://www.wupload.com/file/5156772

Code: Select all

http://www.duckload.com/download/6214994/The.Woman.2011.DVDScr.XviD.AC3.HQ.Hive-CM8.avi
Image

Post Reply

Return to “Sub-Retail Quality”