Rango 2011 DVDScr AC3 XViD-EP1C

Direct Download links for Sub-Retail Movie Releases. : DVDScr, R5, DDC, PPVRip and Workprint.

Moderator: Admins

Post Reply
User avatar
drcoolmor
Global Moderator
Global Moderator
Posts: 26407
Joined: June 7th 2010 - 1:12 am
P2P Clients: eMule
Azureus
Has thanked: 3 times
Been thanked: 813 times

Rango 2011 DVDScr AC3 XViD-EP1C

Post by drcoolmor » May 27th 2011 - 10:05 am

Image

P2P group EP1C released the first DVDScr for the movie ‘Rango‘. The release comes with AC3 audio. Enjoy!

Plot: From the director of ‘The Pirates of the Caribbean’ comes ‘Rango,’ featuring Johnny Depp in an original animated comedy-adventure that takes moviegoers for a hilarious and heartfelt walk in the Wild West. The story follows the comical, transformative journey of Rango (Depp), a sheltered chameleon living as an ordinary family pet, while facing a major identity crisis. After all, how high can you aim when your whole purpose in life is to blend in? When Rango accidentally winds up in the gritty, gun-slinging town of Dirt — a lawless outpost populated by the desert’s most wily and whimsical creatures — the less-than-courageous lizard suddenly finds he stands out. Welcomed as the last hope the town has been waiting for, new Sheriff Rango is forced to play his new role to the hilt…until, in a blaze of action-packed situations and encounters with outrageous characters, Rango starts to become the hero he once only pretended to be. With a cast that includes Depp, Isla Fisher, Abigail Breslin, Alfred Molina, Bill Nighy, Harry Dean Stanton, Ray Winstone and Timothy Olyphant as the Spirit of the West, Rango is an exciting new twist on the classic Western legend of the outsider who saves a town — and himself in the process.

Image
Image

Genre: Animation | Adventure | Comedy
IMDB rating: 7.7/10
Directed by: Gore Verbinski
Starring: Johnny Depp, Isla Fisher and Timothy Olyphant

Code: Select all

   1.
      :::::::::::: EP1C Presents ::::::::::::
   2.
       
   3.
       
   4.
       
   5.
      ::File:: Rango.2011.DVDScr.AC3.XviD-EP1C
   6.
       
   7.
       
   8.
       
   9.
      ::Video Source:: 3LTON
  10.
       
  11.
       
  12.
       
  13.
      ::Language:::::: English
  14.
       
  15.
      ::IMDB:::::::::: http://www.imdb.com/title/tt1192628/
  16.
       
  17.
       
  18.
       
  19.
      Rango is an ordinary chameleon who accidentally winds up in the town of
  20.
       
  21.
      Dirt, a lawless outpost in the Wild West in desperate need of a new sheriff.
  22.
       
  23.
       
  24.
       
  25.
      ::Specs:::::::::
  26.
       
  27.
       
  28.
       
  29.
      Format : AVI
  30.
       
  31.
      Format/Info : Audio Video Interleave
  32.
       
  33.
      File size : 700 MiB
  34.
       
  35.
      Duration : 1h 47mn
  36.
       
  37.
      Overall bit rate : 912 Kbps
  38.
       
  39.
      Writing application : VirtualDubMod 1.5.10.2 (build 2540/release)
  40.
       
  41.
      Writing library : VirtualDubMod build 2540/release
  42.
       
  43.
       
  44.
       
  45.
      Video
  46.
       
  47.
      ID : 0
  48.
       
  49.
      Format : MPEG-4 Visual
  50.
       
  51.
      Format profile : Advanced Simple@L5
  52.
       
  53.
      Format settings, BVOP : Yes
  54.
       
  55.
      Format settings, QPel : No
  56.
       
  57.
      Format settings, GMC : No warppoints
  58.
       
  59.
      Format settings, Matrix : Default (H.263)
  60.
       
  61.
      Codec ID : XviD
  62.
       
  63.
      Codec ID/Hint : XviD
  64.
       
  65.
      Duration : 1h 47mn
  66.
       
  67.
      Bit rate : 711 Kbps
  68.
       
  69.
      Width : 640 pixels
  70.
       
  71.
      Height : 272 pixels
  72.
       
  73.
      Display aspect ratio : 2.35:1
  74.
       
  75.
      Frame rate : 23.976 fps
  76.
       
  77.
      Color space : YUV
  78.
       
  79.
      Chroma subsampling : 4:2:0
  80.
       
  81.
      Bit depth : 8 bits
  82.
       
  83.
      Scan type : Progressive
  84.
       
  85.
      Bits/(Pixel*Frame) : 0.170
  86.
       
  87.
      Stream size : 545 MiB (78%)
  88.
       
  89.
      Writing library : XviD 1.2.1 (UTC 2008-12-04)
  90.
       
  91.
       
  92.
       
  93.
      Audio
  94.
       
  95.
      ID : 1
  96.
       
  97.
      Format : AC-3
  98.
       
  99.
      Format/Info : Audio Coding 3
 100.
       
 101.
      Mode extension : CM (complete main)
 102.
       
 103.
      Codec ID : 2000
 104.
       
 105.
      Duration : 1h 47mn
 106.
       
 107.
      Bit rate mode : Constant
 108.
       
 109.
      Bit rate : 192 Kbps
 110.
       
 111.
      Channel(s) : 2 channels
 112.
       
 113.
      Channel positions : Front: L R
 114.
       
 115.
      Sampling rate : 48.0 KHz
 116.
       
 117.
      Bit depth : 16 bits
 118.
       
 119.
      Stream size : 147 MiB (21%)
 120.
       
 121.
      Alignment : Split accross interleaves
 122.
       
 123.
      Interleave, duration : 42 ms (1.00 video frame)
 124.
       
 125.
      Interleave, preload duration : 500 ms
 126.
       
 127.
       
 128.
       
 129.
      ::NOTES:::::::::
 130.
       
 131.
      Presents Rango DVDScr.
 132.
       
 133.
       
 134.
       
 135.
      Enjoy. //iNK
 136.
       
 137.
       
 138.
       
 139.
      :: Got something we might be interested in? contact us: epic@hushmail.me ::
 140.
       
 141.
       
 142.
       
 143.
      :::::::::::::::::::::::::::::::: RESPECT :::::::::::::::::::::::::::::::::
 144.
       
 145.
      IMAGiNE, Rx, FLAWL3SS, ViSiON, T0XiC, HiVE, bobwhite & All Our Friends!
 146.
       
 147.
       
 148.
       
 149.
      :::::::::::::::: We Are ::::::::::::::::
 150.
       
 151.
      :::::: Surpassing the usual or ordinary ::::::
 152.
       
 153.
      :::::::::::::::::: Heroic and impressive in quality ::::::::::::::::::
 154.
       
 155.
      :::::::::::::::::::::::::::::::: EP1C :::::::::::::::::::::::::::::::: 
Release Name: Rango.2011.DVDScr.AC3.XviD-EP1C
Size: 1 CD (700 MB)
Quality: 720×304, 1,548 kbps, MP3 128 kbps
Runtime: 116 mins
 Rango.2011.DVDScr.AC3.XviD-EP1C.avi

Code: Select all

http://www.fileserve.com/file/dB2mu5a/Rango.2011.DVDScr.AC3.XviD-EP1C.avi

Code: Select all

http://www.wupload.com/file/3043318/Rango.2011.DVDScr.AC3.XviD-EP1C.avi

Code: Select all

http://www.uploadstation.com/file/fqaMb2Z/Rango.2011.DVDScr.AC3.XviD-EP1C.avi

Code: Select all

http://oron.com/07ozqf38zwnl/Rango.2011.DVDScr.AC3.XviD-EP1C.avi.html

Code: Select all

http://www.filefactory.com/f/197cce1a66afe86c/Rango.2011.DVDScr.AC3.XviD-EP1C.avi

Code: Select all

http://uploading.com/files/cfe9cbc2/Rango.2011.DVDScr.AC3.XviD-EP1C.avi/

Code: Select all

http://www.filefactory.com/file/cb788d3

Code: Select all

http://www.duckload.com/download/6079073/Rango.2011.DVDScr.AC3.XviD-EP1C.avi
Image

User avatar
neelpeel
Pissy Pants
Pissy Pants
Posts: 4565
Joined: September 13th 2008 - 12:29 pm
Been thanked: 1 time

Re: Rango 2011 DVDScr AC3 XViD-EP1C

Post by neelpeel » May 27th 2011 - 10:18 am

Hell yeah..... thanks doc :Dancer:

Post Reply

Return to “Sub-Retail Quality”