Red Riding Hood (2011) R5 XviD-BiDA

Direct Download links for Sub-Retail Movie Releases. : DVDScr, R5, DDC, PPVRip and Workprint.

Moderator: Admins

Post Reply
User avatar
drcoolmor
Global Moderator
Global Moderator
Posts: 26407
Joined: June 7th 2010 - 1:12 am
P2P Clients: eMule
Azureus
Has thanked: 3 times
Been thanked: 813 times

Red Riding Hood (2011) R5 XviD-BiDA

Post by drcoolmor » May 24th 2011 - 7:07 pm

Image

Valerie (Seyfried) is a beautiful young woman torn between two men. She is in love with a brooding outsider, Peter (Fernandez), but her parents have arranged for her to marry the wealthy Henry (Irons). Unwilling to lose each other, Valerie and Peter are planning to run away together when they learn that Valerie’s older sister has been killed by the werewolf that prowls the dark forest surrounding their village. For years, the people have maintained an uneasy truce with the beast, offering the creature a monthly animal sacrifice. But under a blood red moon, the wolf has upped the stakes by taking a human life. Hungry for revenge, the people call on famed werewolf hunter, Father Solomon (Oldman), to help them kill the wolf. But Solomon’s arrival brings unintended consequences as he warns that the wolf, who takes human form by day, could be any one of them. As the death toll rises with each moon…

Image
Image
Image

Genre: Fantasy | Horror | Mystery
IMDB rating: 4.9/10 (7,149 votes)
Directed by: Catherine Hardwicke
Starring: Amanda Seyfried, Lukas Haas and Gary Oldman

Code: Select all

   *********** ****    ****      ***      ******** *********** ****    *** **********
           *+*     +*+*+* *+*+*+   *+* *+*   *+*    *+*    *+*     *+*+*   *+* *+*        
           +*+     +*+ +*+*+ +*+  +*+   +*+  +*+           +*+     *+*+*+  +*+ +*+        
           +$+     +$+  +*+  +$+ +$++*++$++* *$*           +$+     +$+ +*+ +$+ +$++*++$  
           +$+     +$+       +$+ +$+     +$+ +$+   +$+$    +$+     +$+  +$+$+$ +$+        
           $+$     $+$       $+$ $+$     $+$ $+$    $+$    $+$     $+$   $+$+$ $+$        
       $$$$$$$$$$$ $$$       $$$ $$$     $$$  $$$$$$$$ $$$$$$$$$$$ $$$    $$$$ $$$$$$$$$$     
                                                



                           Another Fine Release Brought to you from - IMAGiNE                   
                                                 

********************************************************************************************************************                                
                                    Red Riding Hood 2011 TS XviD - IMAGiNE
********************************************************************************************************************

Ripper ...........:IMAGiNE                                      IMDB Rating.......:4.7/10                             
Video Codec.......:XviD                                         Release Date......:19/03/11
Audio Codec.......:MP3                                          Theatre Date......:11/03/11
Audio Bitrate.....:128                                          Runtime.......:1h 35mn
Subtitles.........:ENG WHEN NEEDED                              Language..........:ENGLISH
Resolution........: 720x 288                                    IMDb URL..........:http://www.imdb.com/title/tt1486185/


[color=yellow]DETAILS:[/color]

Video
ID                               : 0
Format                           : MPEG-4 Visual
Format profile                   : Advanced Simple@L5
Format settings, BVOP            : Yes
Format settings, QPel            : No
Format settings, GMC             : No warppoints
Format settings, Matrix          : Default (MPEG)
Muxing mode                      : Packed bitstream
Codec ID                         : XviD
Codec ID/Hint                    : XviD
Duration                         : 1h 35mn
Bit rate                         : 1 928 Kbps
Width                            : 720 pixels
Height                           : 288 pixels
Display aspect ratio             : 2.500
Frame rate                       : 25.000 fps
Resolution                       : 24 bits
Colorimetry                      : 4:2:0
Scan type                        : Progressive
Bits/(Pixel*Frame)               : 0.372
Stream size                      : 1.28 GiB (93%)
Writing library                  : XviD 1.2.1 (UTC 2008-12-04)

Audio
ID                               : 1
Format                           : MPEG Audio
Format version                   : Version 1
Format profile                   : Layer 3
Codec ID                         : 55
Codec ID/Hint                    : MP3
Duration                         : 1h 35mn
Bit rate mode                    : Constant
Bit rate                         : 128 Kbps
Channel(s)                       : 2 channels
Sampling rate                    : 44.1 KHz
Resolution                       : 16 bits
Stream size                      : 87.1 MiB (6%)
Alignment                        : Split accross interleaves
Interleave, duration             : 40 ms (1.00 video frame)
Interleave, preload duration     : 500 ms


[color=yellow]SOURCES:[/color]

VIDEO:shapka.2011.D.CAMRip ............. Thanks
AUDIO:Thanks m8ty 

[color=yellow]NOTES:[/color]

IMAGiNE bringing you another release.......... Red Riding Hood 2011

Right the russian video was ok ,nothing too special but watchable.....but it did have a few issues.
Main one being the colouring was well whacked and also it had black borders on the right and top at
slight angles...oh and the worse thing was the interlace it was encoded into the film.
So we cropped the borders fixed the colouring the best we could with a white balance and rgb eq.....
we also hardcoded the one line on non english subs,we fixed the interlace issues and messed with the 
brightness and contrast.
Audio was pretty decent,we just had to sync it and then mux it altogether :P

Enjoy folks :)

[color=yellow]SCREENS:[/color]

[img]http://s50.radikal.ru/i130/1103/d5/edb602362060.jpg[/img]
[img]http://i056.radikal.ru/1103/02/9c1cb17ecdfe.jpg[/img]
[img]http://s42.radikal.ru/i097/1103/d9/99ffda2354b5.jpg[/img]
[img]http://i028.radikal.ru/1103/c6/420d999bc754.jpg[/img]
[img]http://i065.radikal.ru/1103/7e/7e140bef15cf.jpg[/img]
[img]http://s60.radikal.ru/i167/1103/a2/6bd471140cc2.jpg[/img]


[color=yellow]GREETS:[/color]

FLAWL3SS,ViSiON,Rx,ELEKTRI4KA,Serenity,Autotron,CiNEDUB,CRYS,T0XiCiNK ,
And to all the other p2p grps past and present 

[color=RED]Looking for these,syncers,cammers,audio,silver supplier.....Have anything to offer????......
Contact us imaginegroup@hushmail.com[/color][/pre]]
Release Name: Red Riding Hood 2011 R5 XviD-BiDA
Size: 702MB
Video: XviD | 640×272 | 850 Kbps
Audio: English | MP3 | 128 Kbps
Runtime: 1h 35 minutes
 Red.Riding.Hood.2011.R5.XviD-BiDA.avi

Code: Select all

http://www.fileserve.com/file/kRKnuzh/Red.Riding.Hood.2011.R5.XviD-BiDA.avi

Code: Select all

http://www.uploadstation.com/file/yGZfmhM/Red.Riding.Hood.2011.R5.XviD-BiDA.avi

Code: Select all

http://www.wupload.com/file/2305808/Red.Riding.Hood.2011.R5.XviD-BiDA.avi

Code: Select all

http://www.easy-share.com/1915643040/Red.Riding.Hood.2011.R5.XviD-BiDA.avi

Code: Select all

http://www.uploadstation.com/file/yGZfmhM/Red.Riding.Hood.2011.R5.XviD-BiDA.avi


Note: tiny bit out of sync (quite hard to notice) but good quality, V8 a7. :hippy:
Image

Post Reply

Return to “Sub-Retail Quality”