Limitless 2011 R5 LiNE XviD – IMAGiNE

Direct Download links for Sub-Retail Movie Releases. : DVDScr, R5, DDC, PPVRip and Workprint.

Moderator: Admins

Post Reply
User avatar
drcoolmor
Global Moderator
Global Moderator
Posts: 26407
Joined: June 7th 2010 - 1:12 am
P2P Clients: eMule
Azureus
Has thanked: 3 times
Been thanked: 813 times

Limitless 2011 R5 LiNE XviD – IMAGiNE

Post by drcoolmor » May 17th 2011 - 2:14 pm

Image

IMAGiNE released the first R5 for the movie ‘Limitless‘, a movie starring Bradley Cooper. The first two minutes are missing, but doesn’t really make a difference. Check the video-sample before downloading. Enjoy!

Plot: An action-thriller about a writer who takes an experimental drug that allows him to use 100 percent of his mind. As one man evolves into the perfect version of himself, forces more corrupt than he can imagine mark him for assassination. Out-of-work writer Eddie Morra’s (Cooper) rejection by girlfriend Lindy (Abbie Cornish) confirms his belief that he has zero future. That all vanishes the day an old friend introduces Eddie to NZT, a designer pharmaceutical that makes him laser focused and more confident than any man alive. Now on an NZT-fueled odyssey, everything Eddie’s read, heard or seen is instantly organized and available to him. As the former nobody rises to the top of the financial world, he draws the attention of business mogul Carl Van Loon (De Niro), who sees this enhanced version of Eddie as the tool to make billions. But brutal side effects jeopardize his meteoric ascent. With a dwindling stash and hit men who will eliminate him to get the NZT…

Image

Genre: Mystery | Sci-Fi | Thriller
IMDB rating: 7.3/10
Directed by: Neil Burger
Starring: Bradley Cooper, Anna Friel and Abbie Cornish

Code: Select all

   1.
      *********** ****    ****      ***      ******** *********** ****    *** **********
   2.
                *+*     +*+*+* *+*+*+   *+* *+*   *+*    *+*    *+*     *+*+*   *+* *+*       
   3.
                +*+     +*+ +*+*+ +*+  +*+   +*+  +*+           +*+     *+*+*+  +*+ +*+       
   4.
                +$+     +$+  +*+  +$+ +$++*++$++* *$*           +$+     +$+ +*+ +$+ +$++*++$ 
   5.
                +$+     +$+       +$+ +$+     +$+ +$+   +$+$    +$+     +$+  +$+$+$ +$+       
   6.
                $+$     $+$       $+$ $+$     $+$ $+$    $+$    $+$     $+$   $+$+$ $+$       
   7.
            $$$$$$$$$$$ $$$       $$$ $$$     $$$  $$$$$$$$ $$$$$$$$$$$ $$$    $$$$ $$$$$$$$$$   
   8.
                                                     
   9.
       
  10.
       
  11.
       
  12.
                                Another Fine Release Brought to you from - IMAGiNE                 
  13.
                                                     
  14.
       
  15.
      ********************************************************************************************************************                               
  16.
                                     Limitless 2011 R5 LiNE XviD - IMAGiNE
  17.
      ********************************************************************************************************************
  18.
       
  19.
      Ripper ...........: IMAGiNE                                      IMDB Rating.......: 7.3/10                           
  20.
      Video Codec.......: XviD                                         Release Date......: 16/05/11
  21.
      Audio Codec.......: MP3                                          Theatre Date......: 18/03/11
  22.
      Audio Bitrate.....: 128                                          Runtime.......: 1h 37mn
  23.
      Subtitles.........: NIL                                          Language..........: ENGLISH
  24.
      Resolution......: 720 x 304                                      IMDb URL..........: http://www.imdb.com/title/tt1219289/
  25.
       
  26.
       
  27.
      DETAILS:
  28.
       
  29.
      Video
  30.
      ID                               : 0
  31.
      Format                           : MPEG-4 Visual
  32.
      Format profile                   : Advanced Simple@L5
  33.
      Format settings, BVOP            : 2
  34.
      Format settings, QPel            : No
  35.
      Format settings, GMC             : No warppoints
  36.
      Format settings, Matrix          : Default (MPEG)
  37.
      Muxing mode                      : Packed bitstream
  38.
      Codec ID                         : XviD
  39.
      Codec ID/Hint                    : XviD
  40.
      Duration                         : 1h 37mn
  41.
      Bit rate                         : 1 824 Kbps
  42.
      Width                            : 720 pixels
  43.
      Height                           : 304 pixels
  44.
      Display aspect ratio             : 2.35:1
  45.
      Frame rate                       : 25.000 fps
  46.
      Color space                      : YUV
  47.
      Chroma subsampling               : 4:2:0
  48.
      Bit depth                        : 8 bits
  49.
      Scan type                        : Progressive
  50.
      Compression mode                 : Lossy
  51.
      Bits/(Pixel*Frame)               : 0.333
  52.
      Stream size                      : 1.25 GiB (93%)
  53.
      Writing library                  : XviD 61
  54.
       
  55.
      Audio
  56.
      ID                               : 1
  57.
      Format                           : MPEG Audio
  58.
      Format version                   : Version 1
  59.
      Format profile                   : Layer 3
  60.
      Mode                             : Joint stereo
  61.
      Codec ID                         : 55
  62.
      Codec ID/Hint                    : MP3
  63.
      Duration                         : 1h 37mn
  64.
      Bit rate mode                    : Constant
  65.
      Bit rate                         : 128 Kbps
  66.
      Channel(s)                       : 2 channels
  67.
      Sampling rate                    : 44.1 KHz
  68.
      Compression mode                 : Lossy
  69.
      Stream size                      : 89.7 MiB (7%)
  70.
      Alignment                        : Split accross interleaves
  71.
      Interleave, duration             : 40 ms (1.00 video frame)
  72.
      Writing library                  : LAME3.98r
  73.
       
  74.
      SOURCES:
  75.
       
  76.
      VIDEO: ............... Limitless.DVD.R5.KINOPARK Thanx Mate
  77.
      AUDIO: ............... Thanx Matey
  78.
       
  79.
      NOTES:
  80.
       
  81.
      IMAGiNE bringing you another release..........
  82.
      Limitless R5............
  83.
      Well here we are with a nice R5
  84.
      Made a script to crop,
  85.
      resize, sharpen and so on........
  86.
      Audio is nice LiNE but was missing
  87.
      the first 2 minutes and 28 seconds
  88.
      Nothing too important, but no point
  89.
      to add subs or other audio,
  90.
      so we cut it
  91.
      Anyhow
  92.
      Enjoy Folks! 
Release Name: Limitless 2011 R5 LiNE XviD – IMAGiNE
Size: (1.4 GB)
Quality: 720×304, 1,824 kbps, MP3 128 kbps
Runtime: 97 mins
 Limitless.2011.R5.LiNE.XviD-IMAGiNE.avi

Code: Select all

http://www.fileserve.com/file/px9DAsk/Limitless.2011.R5.LiNE.XviD-IMAGiNE.avi

Code: Select all

http://www.filefactory.com/file/cb5bd9b/n/Limitless.2011.R5.LiNE.XviD-IMAGiNE.avi

Code: Select all

http://www.wupload.com/file/980613/Limitless.2011.R5.LiNE.XviD-IMAGiNE.avi

Code: Select all

http://www.uploadstation.com/file/cQCvUAf/Limitless.2011.R5.LiNE.XviD-IMAGiNE.avi

Code: Select all

http://www.duckload.com/download/5774455/Limitless.2011.R5.LiNE.XviD-IMAGiNE.avi

Code: Select all

http://freakshare.com/files/761v4dl4/Limitless.2011.R5.LiNE.XviD.IMAGiNE.avi.html
Image

Post Reply

Return to “Sub-Retail Quality”