13 2010 R5 DVDRip Dubbed AC3 XviD 5.1 HQ Hive-CM8

Direct Download links for Sub-Retail Movie Releases. : DVDScr, R5, DDC, PPVRip and Workprint.

Moderator: Admins

Post Reply
User avatar
drcoolmor
Global Moderator
Global Moderator
Posts: 27202
Joined: June 7th 2010 - 1:12 am
P2P Clients: eMule
Azureus
Has thanked: 4 times
Been thanked: 998 times

13 2010 R5 DVDRip Dubbed AC3 XviD 5.1 HQ Hive-CM8

Post by drcoolmor » December 2nd 2010 - 8:37 pm

Image

Here we have a first R5 of film “13″ released by p2p group CM8. Its a 2010 drama,thriller film and a remake of 2005 French film 13 Tzameti, it stars Jason Statham and Mickey Rourke. This release looks very good. Video quality is top notch, very crisp and clear.

Plot: A naive young man assumes a dead man’s identity and finds himself embroiled in an underground world of power, violence, and chance where men gamble behind closed doors on the lives of other men.

Image
Image
Image

Code: Select all

   1.
              [center][img][IMG]http://img72.imageshack.us/img72/4076/13movieposter535x792.jpg[/IMG][/img]
   2.
       
   3.
      [color=blue][size=5][b]13 2010 R5 DVDRip Dubbed AC3 XviD 5.1 HQ Hive-CM8[/b][/size][/color]
   4.
       
   5.
       
   6.
       
   7.
      [b]Thx Hive
   8.
       
   9.
      CM8 Doing It Right The First Time :D
  10.
       
  11.
      VideoSource: Russian R5
  12.
      13.(Chertova.djuzhina).2010.DVD-5
  13.
      AudioSource: Retail DVDR (like Casino)
  14.
                   with English 5.1 Audio
  15.
       
  16.
      Encode:
  17.
      Retail has higher Resolution but lower Videoquality (720x400)
  18.
      R5 DVDR Video has better quality, so i use the encode i already prepared
  19.
       
  20.
      Video: 720x304 @bitrate 1800 2pass
  21.
      Audio: English AC3 5.1 @448
  22.
      Sample: yes included
  23.
      [/b]
  24.
       
  25.
       
  26.
      [url]http://www.imdb.com/title/tt0798817/[/url]
  27.
       
  28.
       
  29.
      General
  30.
      Complete name                    : 13.2010.R5.DVDRip.Dubbed.XviD.AC3.HQ.Hive-CM8.avi
  31.
      Format                           : AVI
  32.
      Format/Info                      : Audio Video Interleave
  33.
      File size                        : 1.47 GiB
  34.
      Duration                         : 1h 33mn
  35.
      Overall bit rate                 : 2 256 Kbps
  36.
      Writing application              : Nandub v1.0rc2
  37.
      Writing library                  : Nandub build 1853/release
  38.
       
  39.
      Video
  40.
      ID                               : 0
  41.
      Format                           : MPEG-4 Visual
  42.
      Format profile                   : Advanced Simple@L5
  43.
      Format settings, BVOP            : Yes
  44.
      Format settings, QPel            : Yes
  45.
      Format settings, GMC             : No warppoints
  46.
      Format settings, Matrix          : Default (H.263)
  47.
      Muxing mode                      : Packed bitstream
  48.
      Codec ID                         : XviD
  49.
      Codec ID/Hint                    : XviD
  50.
      Duration                         : 1h 33mn
  51.
      Bit rate                         : 1 799 Kbps
  52.
      Width                            : 720 pixels
  53.
      Height                           : 304 pixels
  54.
      Display aspect ratio             : 2.35:1
  55.
      Frame rate                       : 25.000 fps
  56.
      Color space                      : YUV
  57.
      Chroma subsampling               : 4:2:0
  58.
      Bit depth                        : 8 bits
  59.
      Scan type                        : Progressive
  60.
      Bits/(Pixel*Frame)               : 0.329
  61.
      Stream size                      : 1.17 GiB (80%)
  62.
      Writing library                  : XviD 1.2.1 (UTC 2008-12-04)
  63.
       
  64.
      Audio
  65.
      ID                               : 1
  66.
      Format                           : AC-3
  67.
      Format/Info                      : Audio Coding 3
  68.
      Mode extension                   : CM (complete main)
  69.
      Codec ID                         : 2000
  70.
      Duration                         : 1h 33mn
  71.
      Bit rate mode                    : Constant
  72.
      Bit rate                         : 448 Kbps
  73.
      Channel(s)                       : 6 channels
  74.
      Channel positions                : Front: L C R, Side: L R, LFE
  75.
      Sampling rate                    : 48.0 KHz
  76.
      Bit depth                        : 16 bits
  77.
      Stream size                      : 299 MiB (20%)
  78.
      Alignment                        : Split accross interleaves
  79.
      Interleave, duration             : 40 ms (1.00 video frame)
  80.
      Interleave, preload duration     : 500 ms
  81.
       
  82.
      Jason Statham       - Jasper
  83.
      Mickey Rourke       - Jefferson
  84.
      Emmanuelle Chriqui  - Aileen
  85.
      Michael Shannon     - Henry
  86.
      Alexander Skarsgård - Jack
  87.
      David Zayas         - Detective Larry Mullane
  88.
      Ray Winstone        - Ronald Lynn
  89.
      Gaby Hoffmann       - Clara
  90.
      Sam Riley           - Vince
  91.
      50 Cent             - Jimmy
  92.
       
  93.
       
  94.
       
  95.
      A naive young man assumes a dead man's identity and finds himself
  96.
      embroiled in an underground world of power, violence, and chance
  97.
      where men gamble behind closed doors on the lives of other men.
  98.
       
  99.
       
 100.
      [img]http://img121.imageshack.us/img121/8526/ffrffffrfrrrrrfr.png[/img]
 101.
      [img]http://img543.imageshack.us/img543/5463/ffrffffrrrrrfr.png[/img]
 102.
      [img]http://img189.imageshack.us/img189/4913/ffrfffrrrrfr.png[/img]
 103.
      [img]http://img571.imageshack.us/img571/1072/ffrffrrr.png[/img]
 104.
      [img]http://img221.imageshack.us/img221/9321/ffrffrrrfr.png[/img]
 105.
      [img]http://img442.imageshack.us/img442/7568/ffrfrr.png[/img]
 106.
      [img]http://img406.imageshack.us/img406/3144/ffrr.png[/img]
 107.
      [img]http://img98.imageshack.us/img98/6817/41108687.png[/img]
 108.
       
 109.
       
 110.
       
 111.
      [video=http://www.youtube.com/watch?v=0zudhQ1KaAQ]
 112.
       
 113.
       
 114.
       
 115.
      Greetz
 116.
       
 117.
      iNK,LUSi,,MAGNET,CLASSiFiED,THC,LEGi0N,IMAGiNE,ViSiON,WBZ,FLAWL3SS
 118.
      Rapeseed,D2U,SAFC,goldadvance,MEMORY100,KaN1vE,Unevano,Pinnz,Wayne,Mr Hive
 119.
      and all P2P groups
 120.
      Great Work Guys :D[/center] 
Genre: Drama | Thriller
iMDB Rating: 7.4/10 (1,176 votes)
Directed by: Géla Babluani
Directed by: Jason Statham, Mickey Rourke and Emmanuelle Chriqui.

Release Name: 13.2010.R5.DVDRip.Dubbed.XviD.AC3.HQ.Hive-CM8
Size: 1.48 GB
Video: XviD, 720×304, 1 799 Kbps
Audio: English AC3 5.1 @448
Runetime: 1h 33mn
 13.2010.R5.DVDRip.Dubbed.XviD.AC3.HQ.Hive-CM8.avi

Code: Select all

http://hotfile.com/dl/86511467/8210a96/13.2010.R5.DVDRip.Dubbed.XviD.AC3.HQ.Hive-CM8.avi.html

Code: Select all

http://www.fileserve.com/file/RR69KhV/13.2010.R5.DVDRip.Dubbed.XviD.AC3.HQ.Hive-CM8.avi

Code: Select all

http://www.rapidshare.com/files/434265082/Backup.movie.2010.new.part4.rar
http://www.rapidshare.com/files/434264951/Backup.movie.2010.new.part3.rar
http://www.rapidshare.com/files/434264953/Backup.movie.2010.new.part2.rar
http://www.rapidshare.com/files/434264952/Backup.movie.2010.new.part1.rar

Code: Select all

http://hotfile.com/dl/86508919/b1c7b23/13.2010.R5.DVDRip.Dubbed.XviD.AC3.HQ.Hive-CM8.part1.rar.html
http://hotfile.com/dl/86508918/9c2a198/13.2010.R5.DVDRip.Dubbed.XviD.AC3.HQ.Hive-CM8.part2.rar.html
http://hotfile.com/dl/86508916/28ca9fe/13.2010.R5.DVDRip.Dubbed.XviD.AC3.HQ.Hive-CM8.part3.rar.html
http://hotfile.com/dl/86508917/a3a8099/13.2010.R5.DVDRip.Dubbed.XviD.AC3.HQ.Hive-CM8.part4.rar.html
Image

User avatar
neelpeel
Pissy Pants
Pissy Pants
Posts: 4565
Joined: September 13th 2008 - 12:29 pm
Been thanked: 1 time

Re: 13 2010 R5 DVDRip Dubbed AC3 XviD 5.1 HQ Hive-CM8

Post by neelpeel » January 6th 2011 - 1:27 am

ta doctor :Dancer:

User avatar
athealan
All Star
All Star
Posts: 10777
Joined: August 10th 2006 - 8:31 pm
Location: Yorkshire Gods Kingdom

Re: 13 2010 R5 DVDRip Dubbed AC3 XviD 5.1 HQ Hive-CM8

Post by athealan » January 6th 2011 - 2:48 am

:thumbup2:
Image
Image

Post Reply

Return to “Sub-Retail Quality”