Alpha and Omega (2010) R5 XviD READNFO-LKRG

Direct Download links for Sub-Retail Movie Releases. : DVDScr, R5, DDC, PPVRip and Workprint.

Moderator: Admins

Post Reply
User avatar
drcoolmor
Global Moderator
Global Moderator
Posts: 26712
Joined: June 7th 2010 - 1:12 am
P2P Clients: eMule
Azureus
Has thanked: 3 times
Been thanked: 905 times

Alpha and Omega (2010) R5 XviD READNFO-LKRG

Post by drcoolmor » October 21st 2010 - 9:57 pm

Image

Plot: In Jasper National Park, the wolves, Kate and Humphrey, have known each other since puppyhood, but they are on the oppose ends of the Western Pack’s social structure with Kate as the energetic Alpha daughter of the pack leader and Humphrey being the good humoured Omega. That social structure forces Kate to accept an arranged marriage with Garth of the Eastern Pack to unite the packs for peace, regardless of Humphrey’s hopeless attraction for her. Before that union can occur, Kate and Humphrey are captured by the park’s rangers and sent to an Idaho park as part of a wolf repopulation project. Mindful of her duties, Kate is determined to return to Jasper and Humphrey offers to help with the assistance of two odd geese. However, as this disparate pair struggle through the dangers to get home, a growing mutual appreciation of their talents and then a deeper love threatens to disastrously complicate everything if they make it back.

Image

Code: Select all

   1.
      Alpha and Omega 2010 R5 XviD READNFO-LKRG
   2.
       
   3.
      Video
   4.
      ID : 0
   5.
      Format : MPEG-4 Visual
   6.
      Format profile : Simple@L3
   7.
      Format settings, BVOP : No
   8.
      Format settings, QPel : No
   9.
      Format settings, GMC : No warppoints
  10.
      Format settings, Matrix : Default (H.263)
  11.
      Codec ID : XviD
  12.
      Codec ID/Hint : XviD
  13.
      Duration : 1h 15mn
  14.
      Bit rate : 1 071 Kbps
  15.
      Width : 700 pixels
  16.
      Height : 392 pixels
  17.
      Display aspect ratio : 16:9
  18.
      Frame rate : 25.000 fps
  19.
      Color space : YUV
  20.
      Chroma subsampling : 4:2:0
  21.
      Bit depth : 8 bits
  22.
      Scan type : Progressive
  23.
      Bits/(Pixel*Frame) : 0.156
  24.
      Stream size : 577 MiB (80%)
  25.
      Writing library : XviD 1.2.1 (UTC 2008-12-04)
  26.
       
  27.
      Audio
  28.
      ID : 1
  29.
      Format : AC-3
  30.
      Format/Info : Audio Coding 3
  31.
      Mode extension : CM (complete main)
  32.
      Codec ID : 2000
  33.
      Duration : 1h 15mn
  34.
      Bit rate mode : Constant
  35.
      Bit rate : 256 Kbps
  36.
      Channel(s) : 2 channels
  37.
      Channel positions : Front: L R
  38.
      Sampling rate : 48.0 KHz
  39.
      Bit depth : 16 bits
  40.
      Stream size : 138 MiB (19%)
  41.
      Alignment : Aligned on interleaves
  42.
      Interleave, duration : 477 ms (11.92 video frames)
  43.
      Interleave, preload duration : 960 ms
  44.
       
  45.
      READNFO - ENGLISH CAM Audio
  46.
       
  47.
      Two young wolves at opposite ends of their pack's social order are thrown together into a foreign land and need each other to return home, but love complicates everything. 
Genre: Animation | Adventure | Comedy | Family
IMDB rating: 3.5/10 (548 votes) http://www.imdb.com/title/tt1213012/
Directed by: Anthony Bell, Ben Gluck
Starring: Justin Long, Hayden Panettiere, Dennis Hopper, Danny Glover

Release Name: Alpha and Omega 2010 R5 XviD READNFO-LKRG
Size: 717.91 MB
Quality: 700×392, 1071 Kbps, AC3 256 Kbps
Runtime: 88 minutes
Filename: a&oLKRG
 Alpha.and.Omega.2010.R5.XviD.READ.NFO.LKRG.avi

Code: Select all

http://www.megaupload.com/?d=W4QXD5H7

Code: Select all

http://www.fileserve.com/file/K5MJH76/Alpha.and.Omega.2010.R5.XviD.READ.NFO.LKRG.avi

Code: Select all

http://d01.megashares.com/?d01=eqYJcJX

Code: Select all

http://hotfile.com/dl/77415811/d3dbbaf/Alpha.and.Omega.2010.R5.XviD.READ.NFO.LKRG.avi.html
Image

Post Reply

Return to “Sub-Retail Quality”