Lyndey & Blair's Taste of Greece (2011)

Direct Downloads links for TV-Rip television series releases. Episodes ripped straight from the box. This forum also contains 720p HDTV releases.

Moderators: Geo66, Admins

Post Reply
User avatar
lizard
Phantom VIP
Phantom VIP
Posts: 1866
Joined: September 30th 2007 - 2:34 am
P2P Clients: Torrent & DDL
Location: Bathroom....

Lyndey & Blair's Taste of Greece (2011)

Post by lizard » May 27th 2011 - 9:18 am

Lyndey & Blair's Taste of Greece
Image
Lyndey and Blair Milan take a gastronomic journey through Greece.
Mother and Son duo, Lyndey and Blair Milan embark on an Epicurean roadtrip around Greece’s Peloponnese, served with tantalizing food, a nod to history and myth and a big slice of adventure. Lyndey & Blair’s Taste of Greece follows the doyen of Australian food and wine Lyndey Milan and her adult actor son Blair as they tour Greece’s fascinating Peloponnese with a crew seeking culinary delights, adventure and antiquities. Along the way they cook, eat, drink and engage with a charming yet eclectic mix of home cooks, winemakers, producers, chefs and restaurateurs. While the cuisine of the Peloponnese has a starring role, the historic heart of Greece is not overlooked as ancient sites are explored with an adventurous edge, full of humour and insight. The unique mother/son relationship between Lyndey and Blair adds another layer of fun and banter.
Series of 7 episodes

After the completion of the series,
Blair, 29, collapsed in his Sydney home at Erskineville on Thursday after complaining of feeling tired after returning from overseas where he had been promoting the sale of a new cooking series he recently completed with his mother.
Blair passed away shortly after.

episode 1
Series 1, Episode 1 : Athens

Food and wine personality Lyndey Milan and her actor son Blair tour Greece's fascinating Peloponnese seeking culinary delights, adventure and antiquities. Their trip begins in Athens, but before they leave Lyndey and Blair visit a meat market, try tripe soup and enjoy the Acropolis.
 Lyndey.And.Blairs.Taste.Of.Greece.S01E01.WS.PDTV.XviD-HDCP.avi, 230mb

Code: Select all

http://www.fileserve.com/file/wXPWASA/Lyndey.And.Blairs.Taste.Of.Greece.S01E01.WS.PDTV.XviD-HDCP.avi
or
http://www.filesonic.com/file/1076567764/Lyndey.And.Blairs.Taste.Of.Greece.S01E01.WS.PDTV.XviD-HDCP.avi
 Lyndey.And.Blairs.Taste.Of.Greece.S01E02.WS.PDTV.XviD-HDCP.avi, 232mb

Code: Select all

http://www.megaupload.com/?d=GNRLQU3A
or
http://www.fileserve.com/file/AJVPQTe
 Lyndey.And.Blairs.Taste.Of.Greece.S01E03.WS.PDTV.XviD-HDCP.avi, 232mb

Code: Select all

http://www.fileserve.com/file/V45SeH2
or
http://www.megaupload.com/?d=GCI0N2DB

Code: Select all

Format                           : AVI
Format/Info                      : Audio Video Interleave
File size                        : 232 MiB
Duration                         : 25mn 11s
Overall bit rate                 : 1 288 Kbps
Writing application              : VirtualDubMod 1.5.10.2 (build 2540/release)
Writing library                  : VirtualDubMod build 2540/release

Video
ID                               : 0
Format                           : MPEG-4 Visual
Format profile                   : Advanced Simple@L5
Format settings, BVOP            : 2
Format settings, QPel            : No
Format settings, GMC             : No warppoints
Format settings, Matrix          : Default (H.263)
Codec ID                         : XviD
Codec ID/Hint                    : XviD
Duration                         : 25mn 11s
Bit rate                         : 1 147 Kbps
Width                            : 624 pixels
Height                           : 352 pixels
Display aspect ratio             : 16:9
Frame rate                       : 25.000 fps
Color space                      : YUV
Chroma subsampling               : 4:2:0
Bit depth                        : 8 bits
Scan type                        : Progressive
Compression mode                 : Lossy
Bits/(Pixel*Frame)               : 0.209
Stream size                      : 207 MiB (89%)
Writing library                  : XviD 1.2.1 (UTC 2008-12-04)

Audio
ID                               : 1
Format                           : MPEG Audio
Format version                   : Version 1
Format profile                   : Layer 3
Mode                             : Joint stereo
Mode extension                   : MS Stereo
Codec ID                         : 55
Codec ID/Hint                    : MP3
Duration                         : 25mn 11s
Bit rate mode                    : Variable
Bit rate                         : 128 Kbps
Nominal bit rate                 : 138 Kbps
Channel(s)                       : 2 channels
Sampling rate                    : 48.0 KHz
Compression mode                 : Lossy
Stream size                      : 23.1 MiB (10%)
Alignment                        : Aligned on interleaves
Interleave, duration             : 24 ms (0.60 video frame)
Interleave, preload duration     : 502 ms
Writing library                  : LAME3.98r
Encoding settings                : -m j -V 4 -q 3 -lowpass 17 --abr 138
[url]http://www.news.com.au/entertainment/television/tv-food-queen-lyndey-milan-loses-son-blair-who-died-suddenly-of-a-rare-blood-disorder/story-e6frfmyi-1226040948431[/url]
Image
I Know What Boys Like!

User avatar
lizard
Phantom VIP
Phantom VIP
Posts: 1866
Joined: September 30th 2007 - 2:34 am
P2P Clients: Torrent & DDL
Location: Bathroom....

Re: Lyndey & Blair's Taste of Greece Season 1 (added E03)

Post by lizard » June 20th 2011 - 6:21 am

episode 3 added
Image
I Know What Boys Like!

Post Reply

Return to “TV-Rip Releases”