Running Wilde (2010-??)

Direct Downloads links for TV-Rip television series releases. Episodes ripped straight from the box. This forum also contains 720p HDTV releases.

Moderators: Geo66, Admins

Post Reply
User avatar
lizard
Phantom VIP
Phantom VIP
Posts: 1866
Joined: September 30th 2007 - 2:34 am
P2P Clients: Torrent & DDL
Location: Bathroom....

Running Wilde (2010-??)

Post by lizard » March 11th 2011 - 11:33 am

Running Wilde (2010-??) Season 1 HDTV
Image
http://www.imdb.com/title/tt1615926/
30 min - Comedy
Users: 7.3/10 (552 votes) 12 reviews | Critics: 3 reviews

Steven Wilde always had everything he wanted, due to his improbably rich father. Except the girl, Emmy Kadubic, who is an environmentalist. Emmy and her daughter, Puddle come to live with him.
Creators:Will Arnett, Mitchell Hurwitz, James Vallely
Stars:Will Arnett, Keri Russell and Stefania Owen
 Running.Wilde.S01.E01-E09.HDTV.XviD-Mixed XviD | MP3 VBR | 175 MB x 9 Megaupload & or Fileserve

Code: Select all

Running.Wilde.S01.E01-E09.HDTV.XviD-Mixed XviD | MP3 VBR | 175 MB x 9 Megaupload or Fileserve

http://www.fileserve.com/list/rZ9TvdU

http://www.megaupload.com/?d=8EEP3PWO
http://www.megaupload.com/?d=YBSPV7YM
http://www.megaupload.com/?d=TQFIVDSP
http://www.megaupload.com/?d=9YBKN67A
http://www.megaupload.com/?d=1I09TS9A
http://www.megaupload.com/?d=4R8ELHEE
http://www.megaupload.com/?d=KWEA3EOI
http://www.megaupload.com/?d=24EBX79U
http://www.megaupload.com/?d=UYNOE0Y1
 Running.Wilde.S01E10.480p.HDTV.ReEnc.x264, 70mb

Code: Select all

http://www.fileserve.com/file/xyw5UKY
 Running.Wilde.S01E11.480p.HDTV.ReEnc.x264, 70mb

Code: Select all

http://www.fileserve.com/file/Ua6wSVS
 Running.Wilde.S01E12.480p.HDTV.ReEnc.x264, 70mb

Code: Select all

http://www.fileserve.com/file/p2dVYq6
 Running.Wilde.S01E13.480p.HDTV.ReEnc.x264, 70mb

Code: Select all

http://www.fileserve.com/file/EGZB9Sy

Code: Select all

Format                           : AVI
Format/Info                      : Audio Video Interleave
File size                        : 175 MiB
Duration                         : 21mn 30s
Overall bit rate                 : 1 138 Kbps
Writing application              : transcode-1.0.6

Video
ID                               : 0
Format                           : MPEG-4 Visual
Format profile                   : Advanced Simple@L5
Format settings, BVOP            : 2
Format settings, QPel            : No
Format settings, GMC             : No warppoints
Format settings, Matrix          : Default (H.263)
Codec ID                         : XviD
Codec ID/Hint                    : XviD
Duration                         : 21mn 30s
Bit rate                         : 993 Kbps
Width                            : 624 pixels
Height                           : 352 pixels
Display aspect ratio             : 16:9
Frame rate                       : 23.976 fps
Color space                      : YUV
Chroma subsampling               : 4:2:0
Bit depth                        : 8 bits
Scan type                        : Progressive
Compression mode                 : Lossy
Bits/(Pixel*Frame)               : 0.189
Stream size                      : 153 MiB (87%)
Writing library                  : XviD 1.2.1 (UTC 2008-12-04)

Audio
ID                               : 1
Format                           : MPEG Audio
Format version                   : Version 1
Format profile                   : Layer 3
Mode                             : Joint stereo
Mode extension                   : MS Stereo
Codec ID                         : 55
Codec ID/Hint                    : MP3
Duration                         : 21mn 30s
Bit rate mode                    : Variable
Bit rate                         : 128 Kbps
Channel(s)                       : 2 channels
Sampling rate                    : 48.0 KHz
Compression mode                 : Lossy
Stream size                      : 20.3 MiB (12%)
Alignment                        : Aligned on interleaves
Interleave, duration             : 24 ms (0.58 video frame)
Writing library                  : LAME3.90.
Encoding settings                : -m j -V 4 -q 2 -lowpass 17.6 --abr 128
Image
I Know What Boys Like!

User avatar
lizard
Phantom VIP
Phantom VIP
Posts: 1866
Joined: September 30th 2007 - 2:34 am
P2P Clients: Torrent & DDL
Location: Bathroom....

Re: Running Wilde (2010-??) Season 1 HDTV added ep13

Post by lizard » May 22nd 2011 - 9:55 am

added episode 13
Image
I Know What Boys Like!

User avatar
lizard
Phantom VIP
Phantom VIP
Posts: 1866
Joined: September 30th 2007 - 2:34 am
P2P Clients: Torrent & DDL
Location: Bathroom....

Re: Running Wilde (2010-??) Season 1 HDTV (complete)

Post by lizard » October 16th 2011 - 3:49 pm

LINKS STILL ACTIVE
Image
I Know What Boys Like!

Post Reply

Return to “TV-Rip Releases”