Glee (2009– ??) HDTV * added S03E14

Direct Downloads links for TV-Rip television series releases. Episodes ripped straight from the box. This forum also contains 720p HDTV releases.

Moderators: Geo66, Admins

Post Reply
User avatar
lizard
Phantom VIP
Phantom VIP
Posts: 1866
Joined: September 30th 2007 - 2:34 am
P2P Clients: Torrent & DDL
Location: Bathroom....

Glee (2009– ??) HDTV * added S03E14

Post by lizard » March 11th 2011 - 8:22 am

Glee (2009– ??) HDTV.XviD-LOL XviD
44 min - Comedy | Drama | Music
Users: 8.3/10 (28,597 votes) 87 reviews | Critics: 26 reviews

A high-school Spanish teacher becomes the director of the school's Glee club, hoping to restore it to its former glory.
Creators:Ian Brennan, Ryan Murphy, Brad Falchuk
Stars:Lea Michele, Jane Lynch and Matthew Morrison
http://www.imdb.com/title/tt1327801/
Image

Season 3
 Glee.Season 3 4shared links 145mb HDTV.X264-DIMENSION

Code: Select all

http://www.4shared.com/video/ZZ1l9St9/Gl302.html
http://www.4shared.com/video/gPpJIzPg/Gl303.html
http://www.4shared.com/video/XG_Y8nnn/Gl304.html
http://www.4shared.com/video/VhKzQTMi/Gl305.html
http://www.4shared.com/video/9MBc20G7/Gl306.html
http://www.4shared.com/video/wNM9qJpI/Gl307.html
http://www.4shared.com/video/uSLUFH9f/Gl308.html
http://www.4shared.com/video/YDfKZW66/Gl309.html
http://www.4shared.com/video/A4o-Kjbh/Gl310.html
http://www.4shared.com/video/diMDY0O6/Gl311.html
http://www.4shared.com/file/pSdSaxmE/Gl312.html
http://www.4shared.com/video/_28ET0y5/Gl313.html
http://www.4shared.com/video/HGJd02bB/Gl314_2.html
or
http://dc242.4shared.com/download/ZZ1l9St9/Gl302.mkv
http://dc451.4shared.com/download/gPpJIzPg/Gl303.mkv
http://dc490.4shared.com/download/XG_Y8nnn/Gl304.mkv
http://dc540.4shared.com/download/VhKzQTMi/Gl305.mkv
http://dc509.4shared.com/download/9MBc20G7/Gl306.mkv
http://dc539.4shared.com/download/wNM9qJpI/Gl307.mkv
http://dc525.4shared.com/download/uSLUFH9f/Gl308.mkv
http://dc539.4shared.com/download/YDfKZW66/Gl309.mkv
http://dc254.4shared.com/download/A4o-Kjbh/Gl310.mkv
http://dc528.4shared.com/download/diMDY0O6/Gl311.mkv
http://dc535.4shared.com/download/pSdSaxmE/Gl312.m4v
http://dc346.4shared.com/download/_28ET0y5/Gl313.mkv
http://dc528.4shared.com/download/HGJd02bB/Gl314_2.mkv
Season 2
 Glee.Seaseon 2 with extras...XviD-REWARD Megaupload & fileserve

Code: Select all

Glee.S02.Vol.01 ePISODES 1 - 10.DVDRip.XviD-REWARD
XviD 624 x 352 | MP3 VBR | 350 MB x 10

http://www.fileserve.com/list/SRC3RTs

http://www.megaupload.com/?d=UVASMIME
http://www.megaupload.com/?d=BDNQB3SV
http://www.megaupload.com/?d=K3H5OL9I
http://www.megaupload.com/?d=ZJFM4NRQ
http://www.megaupload.com/?d=U3U3WB09
http://www.megaupload.com/?d=PG6CRHWN
http://www.megaupload.com/?d=7BAI9DOJ
http://www.megaupload.com/?d=FYMSJPY1
http://www.megaupload.com/?d=TNMIAUE0
http://www.megaupload.com/?d=URIU28CN

Glee.S02E11.HDTV.XviD-LOL XviD | MP3 VBR | 550 MB
http://www.megaupload.com/?d=IKZWEYT7
http://www.fileserve.com/file/VFapJzP

Glee.S02E12.HDTV.XviD-LOL XviD | MP3 VBR | 350 MB
http://www.megaupload.com/?d=4SKM7A4C
http://www.fileserve.com/file/AFHcVwf

Glee.S02E13.HDTV.XviD-LOL XviD | MP3 VBR | 350 MB
http://www.megaupload.com/?d=6VP6TCLO
http://www.fileserve.com/file/mwzd5Sd

Glee.S02E14.HDTV.XviD-LOL XviD | MP3 VBR | 350 MB
http://www.megaupload.com/?d=QD3H1FY0
http://www.fileserve.com/file/4X6sVbF

Glee.S02E15.HDTV.XviD-LOL XviD | MP3 VBR | 350 MB
http://www.megaupload.com/?d=JBS626B3
http://www.fileserve.com/file/kRTmK6g

Glee.S02E16.HDTV.XviD-LOL XviD | MP3 VBR | 350 MB
http://www.megaupload.com/?d=V45BAD1I
http://www.fileserve.com/file/8AXc8tf

Glee.S02E17.HDTV.XviD-LOL
XviD | MP3 VBR | 350 MB
http://www.megaupload.com/?d=4EWC6Q5O
http://www.fileserve.com/file/zvszmvK

Glee.S02E18.HDTV.XviD-LOL
XviD | MP3 VBR | 550 MB
http://www.megaupload.com/?d=9ZTNR151
http://www.fileserve.com/file/xdR84pG

Glee.S02E19.480p.HDTV.DIMENSION.x264, 140 MB
http://www.fileserve.com/file/BWcCqeK

Glee.S02E20.480p.HDTV.DIMENSION.x264, 140 MB
http://www.fileserve.com/file/MUq8aRY

Glee.S02E21.480p.HDTV.ReEnc.x264, 140 MB
http://www.fileserve.com/file/w7KHTFT

Glee.S02E22.720p.HDTV.X264-DIMENSION.mkv, 150 MB
http://www.fileserve.com/file/ps9cdvK
Season 1
 Glee.Season 1.E01-22.XviD-TOPAZ XviD | MP3 VBR | 350 MB x 22 fileserve

Code: Select all

Glee.S01.E01-22.XviD-TOPAZ XviD | MP3 VBR | 350 MB x 22
http://www.fileserve.com/list/2KKtqpd

Code: Select all

Format                           : AVI
Format/Info                      : Audio Video Interleave
File size                        : 550 MiB
Duration                         : 48mn 22s
Overall bit rate                 : 1 588 Kbps
Writing application              : transcode-1.0.6

Video
ID                               : 0
Format                           : MPEG-4 Visual
Format profile                   : Advanced Simple@L5
Format settings, BVOP            : 2
Format settings, QPel            : No
Format settings, GMC             : No warppoints
Format settings, Matrix          : Default (H.263)
Codec ID                         : XviD
Codec ID/Hint                    : XviD
Duration                         : 48mn 22s
Bit rate                         : 1 412 Kbps
Width                            : 624 pixels
Height                           : 352 pixels
Display aspect ratio             : 16:9
Frame rate                       : 23.976 fps
Color space                      : YUV
Chroma subsampling               : 4:2:0
Bit depth                        : 8 bits
Scan type                        : Progressive
Compression mode                 : Lossy
Bits/(Pixel*Frame)               : 0.268
Stream size                      : 489 MiB (89%)
Writing library                  : XviD 1.2.1 (UTC 2008-12-04)

Audio
ID                               : 1
Format                           : MPEG Audio
Format version                   : Version 1
Format profile                   : Layer 3
Mode                             : Joint stereo
Mode extension                   : MS Stereo
Codec ID                         : 55
Codec ID/Hint                    : MP3
Duration                         : 48mn 22s
Bit rate mode                    : Variable
Bit rate                         : 160 Kbps
Channel(s)                       : 2 channels
Sampling rate                    : 48.0 KHz
Compression mode                 : Lossy
Stream size                      : 56.5 MiB (10%)
Alignment                        : Aligned on interleaves
Interleave, duration             : 24 ms (0.58 video frame)
Writing library                  : LAME3.90.
Encoding settings                : -m j -V 4 -q 2 -lowpass 18 --abr 160
Last edited by lizard on May 18th 2011 - 8:07 am, edited 3 times in total.
Image
I Know What Boys Like!

User avatar
lizard
Phantom VIP
Phantom VIP
Posts: 1866
Joined: September 30th 2007 - 2:34 am
P2P Clients: Torrent & DDL
Location: Bathroom....

Re: Glee (2009– ??) HDTV * added S03E14

Post by lizard » March 10th 2012 - 5:56 am

added season 3 up to e14
Image
I Know What Boys Like!

Post Reply

Return to “TV-Rip Releases”