[NP] Gomorra (2008) LiMiTED-DVDSCR-XViD-HLS

Release forum for sub-retail quality movie rips in languages other than English. English subs must be included.
Note: All titles are prefixed with release language(s).

Moderator: unusual

Post Reply
User avatar
manikbr
Phantom VIP
Phantom VIP
Posts: 301
Joined: August 18th 2007 - 5:32 pm
Location: South Brazil

[NP] Gomorra (2008) LiMiTED-DVDSCR-XViD-HLS

Post by manikbr » October 1st 2008 - 7:35 am

Image
"Gomorra," a contemporary Neapolitan mob drama based on an expose of Italy's criminal underbelly by Roberto Saviano, published in the U.S. by Farrar, Strauss & Giraux. That non-fiction book is so hard-hitting that mob threats have forced Saviano into hiding.
http://www.imdb.com/title/tt0929425/

Code: Select all

CD1: 

Format                           : AVI
Format/Info                      : Audio Video Interleave
File size                        : 698 MiB
Duration                         : 1h 6mn
Overall bit rate                 : 1 472 Kbps
Writing application              : Nandub v1.0rc2
Writing library                  : Nandub build 1852/release

Video
Format                           : MPEG-4 Visual
Format profile                   : Streaming Video@L1
Format settings, BVOP            : Yes
Format settings, QPel            : No
Format settings, GMC             : No warppoints
Format settings, Matrix          : Default
Muxing mode                      : Packet Bitstream
Codec ID                         : XviD
Codec ID/Hint                    : XviD
Duration                         : 1h 6mn
Bit rate                         : 1 207 Kbps
Width                            : 640 pixels
Height                           : 272 pixels
Display aspect ratio             : 2.35
Frame rate                       : 25.000 fps
Resolution                       : 24 bits
Colorimetry                      : 4:2:0
Scan type                        : Progressive
Bits/(Pixel*Frame)               : 0.277
Stream size                      : 572 MiB (82%)
Writing library                  : XviD 1.1.2 (UTC 2006-11-01)

Audio
Format                           : AC-3
Format/Info                      : Audio Coding 3
Codec ID                         : 2000
Duration                         : 1h 6mn
Bit rate mode                    : Constant
Bit rate                         : 256 Kbps
Channel(s)                       : 2 channels
Channel positions                : L R
Sampling rate                    : 48.0 KHz
Video delay                      : 8ms
Stream size                      : 121 MiB (17%)
Alignment                        : Split accross interleaves
Interleave, duration             : 40 ms (1.00 video frame)
Interleave, preload duration     : 500 ms

CD2:

Format                           : AVI
Format/Info                      : Audio Video Interleave
File size                        : 698 MiB
Duration                         : 1h 4mn
Overall bit rate                 : 1 510 Kbps
Writing application              : Nandub v1.0rc2
Writing library                  : Nandub build 1852/release

Video
Format                           : MPEG-4 Visual
Format profile                   : Streaming Video@L1
Format settings, BVOP            : Yes
Format settings, QPel            : No
Format settings, GMC             : No warppoints
Format settings, Matrix          : Default
Muxing mode                      : Packet Bitstream
Codec ID                         : XviD
Codec ID/Hint                    : XviD
Duration                         : 1h 4mn
Bit rate                         : 1 244 Kbps
Width                            : 640 pixels
Height                           : 272 pixels
Display aspect ratio             : 2.35
Frame rate                       : 25.000 fps
Resolution                       : 24 bits
Colorimetry                      : 4:2:0
Scan type                        : Progressive
Bits/(Pixel*Frame)               : 0.286
Stream size                      : 575 MiB (82%)
Writing library                  : XviD 1.1.2 (UTC 2006-11-01)

Audio
Format                           : AC-3
Format/Info                      : Audio Coding 3
Codec ID                         : 2000
Duration                         : 1h 4mn
Bit rate mode                    : Constant
Bit rate                         : 256 Kbps
Channel(s)                       : 2 channels
Channel positions                : L R
Sampling rate                    : 48.0 KHz
Stream size                      : 118 MiB (17%)
Alignment                        : Split accross interleaves
Interleave, duration             : 40 ms (1.00 video frame)
Interleave, preload duration     : 500 ms
Image
Image
Image
Image
Image

Gomorra.2008.LIMITED.DVDScr.XviD-HLS.CD1.avi  [697.67 Mb]
Gomorra.2008.LIMITED.DVDScr.XviD-HLS.CD2.avi  [697.62 Mb]

[ Add all 2 links to your ed2k client ]

Post Reply

Return to “Foreign”