The Meg (2018) *1080p BluRay* - FGT

Release forum for : 720p, 1080i and 1080p.
Note: Please be aware of the technical requirements before posting in this section.

Moderator: unusual

Forum rules
Board rules & regulations

***Only movie releases with an horizontal resolution above 960pixels will be accepted in this section***
Post Reply
User avatar
lost_rider34
Phantom
Phantom
Posts: 506
Joined: October 1st 2009 - 6:36 pm
P2P Clients: eMule (v0.50b) Beta
Has thanked: 22 times
Been thanked: 115 times

The Meg (2018) *1080p BluRay* - FGT

Post by lost_rider34 » November 12th 2018 - 12:45 pm

Image

https://www.imdb.com/title/tt4779682/
Na fossa mais profunda do Oceano Pacífico, a tripulação de um submarino fica presa dentro do local após ser atacada por uma criatura pré-histórica que se achava estar extinta, um tubarão de mais de 20 metros de comprimento, o Megalodon. Para salvá-los, oceanógrafo chinês (Winston Chao) contrata Jonas Taylor (Jason Statham), um mergulhador especializado em resgates em água profundas que já encontrou com a criatura anteriormente.

A deep-sea submersible--part of an international undersea observation program--has been attacked by a massive creature, previously thought to be extinct, and now lies disabled at the bottom of the deepest trench in the Pacific... with its crew trapped inside. With time running out, expert deep sea rescue diver Jonas Taylor (Jason Statham) is recruited by a visionary Chinese oceanographer (Winston Chao), against the wishes of his daughter Suyin (Li Bingbing), to save the crew--and the ocean itself--from this unstoppable threat: a pre-historic 75-foot-long shark known as the Megalodon. What no one could have imagined is that, years before, Taylor had encountered this same terrifying creature. Now, teamed with Suyin, he must confront his fears and risk his own life to save everyone trapped below.

Code: Select all

MediaInfo « 
Video
 ID : 1
 Format : AVC
 Format/Info : Advanced Video Codec
 Format profile : High@L4.1
 Format settings : CABAC / 5 Ref Frames
 Format settings, CABAC : Yes
 Format settings, ReFrames : 5 frames
 Codec ID : V_MPEG4/ISO/AVC
 Duration : 1 h 53 min
 Bit rate : 13.0 Mb/s
 Width : 1 920 pixels
 Height : 804 pixels
 Display aspect ratio : 2.40:1
 Frame rate mode : Constant
 Frame rate : 23.976 (24000/1001) FPS
 Color space : YUV
 Chroma subsampling : 4:2:0
 Bit depth : 8 bits
 Scan type : Progressive
 Bits/(Pixel*Frame) : 0.351
 Stream size : 10.3 GiB (90%)
 Title : The.Meg.2018.1080p.BluRay.x264.DTS-FGT
 Writing library : x264 core 142 r2431+42 c69a006 tMod [8-bit@all X86_64]
 Encoding settings : cabac=1 / ref=5 / deblock=1:-3:-3 / analyse=0x3:0x133 / me=umh / subme=11 / psy=1 / fade_compensate=0.00 / psy_rd=1.05:1.05 / mixed_ref=1 / me_range=48 / chroma_me=1 / trellis=2 / 8x8dct=1 / cqm=0 / deadzone=21,11 / fast_pskip=0 / chroma_qp_offset=-4 / threads=16 / lookahead_threads=2 / sliced_threads=0 / nr=0 / decimate=0 / interlaced=0 / bluray_compat=0 / constrained_intra=0 / fgo=0 / bframes=8 / b_pyramid=2 / b_adapt=2 / b_bias=0 / direct=3 / weightb=1 / open_gop=0 / weightp=2 / keyint=240 / keyint_min=23 / scenecut=40 / intra_refresh=0 / rc_lookahead=150 / rc=2pass / mbtree=0 / bitrate=13000 / ratetol=1.0 / qcomp=0.70 / qpmin=0:0:0 / qpmax=69:69:69 / qpstep=4 / cplxblur=20.0 / qblur=0.5 / vbv_maxrate=62500 / vbv_bufsize=78125 / nal_hrd=none / filler=0 / ip_ratio=1.30 / pb_ratio=1.20 / aq=2:0.80 / aq-sensitivity=10.00 / aq-factor=1.00:1.00:1.00 / aq2=0 / aq3=0
 Language : English
 Default : Yes
 Forced : No
 Color range : LIMITED
 Color primaries : BT.709
 Transfer characteristics : BT.709
 Matrix coefficients : BT.709

 Audio
 ID : 2
 Format : DTS
 Format/Info : Digital Theater Systems
 Codec ID : A_DTS
 Duration : 1 h 53 min
 Bit rate mode : Constant
 Bit rate : 1 509 kb/s
 Channel(s) : 6 channels
 Channel layout : C L R Ls Rs LFE
 Sampling rate : 48.0 kHz
 Frame rate : 93.750 FPS (512 SPF)
 Bit depth : 16 bits
 Compression mode : Lossy
 Stream size : 1.19 GiB (10%)
 Title : The.Meg.2018.1080p.BluRay.x264.DTS-FGT
 Language : English
 Default : Yes
 Forced : No

 Text
 ID : 3
 Format : UTF-8
 Codec ID : S_TEXT/UTF8
 Codec ID/Info : UTF-8 Plain Text
 Duration : 1 h 41 min
 Bit rate : 51 b/s
 Count of elements : 1402
 Stream size : 37.9 KiB (0%)
 Language : English
 Default : Yes
 Forced : No

 Menu
 00:00:00.000 : :00:00:00.000
 00:08:48.694 : :00:08:48.694
 00:18:14.259 : :00:18:14.259
 00:27:09.878 : :00:27:09.878
 00:39:30.534 : :00:39:30.534
 00:49:10.989 : :00:49:10.989
 00:58:01.478 : :00:58:01.478
 01:08:22.890 : :01:08:22.890
 01:19:45.947 : :01:19:45.947
 01:30:04.399 : :01:30:04.399
 01:42:40.988 : :01:42:40.988 
Image Image
Image Image
Image Image
Image Image



LINKS:

The.Meg.2018.1080p.BluRay.x264.DTS-FGT.mkv  [11.47 Gb]
The.Meg.2018.1080p.BluRay.x264.DTS-FGT.srt  [88.1 Kb]


[ Add all 2 links to your ed2k client ]
Image

Post Reply

Return to “HD Quality”