Upgrade (2018) *1080p BluRay* - FGT

Release forum for : 720p, 1080i and 1080p.
Note: Please be aware of the technical requirements before posting in this section.

Moderator: unusual

Forum rules
Board rules & regulations

***Only movie releases with an horizontal resolution above 960pixels will be accepted in this section***
Post Reply
User avatar
lost_rider34
Phantom
Phantom
Posts: 506
Joined: October 1st 2009 - 6:36 pm
P2P Clients: eMule (v0.50b) Beta
Has thanked: 22 times
Been thanked: 115 times

Upgrade (2018) *1080p BluRay* - FGT

Post by lost_rider34 » August 24th 2018 - 8:16 pm

Image

https://www.imdb.com/title/tt6499752/

After his wife is killed during a brutal mugging that also leaves him paralyzed, Grey Trace (Logan Marshall Green, SPIDER-MAN: HOMECOMING, PROMETHEUS) is approached by a billionaire inventor with an experimental cure that will "upgrade" his body. The cure - an Artificial Intelligence implant called STEM - gives Grey physical abilities beyond anything experienced and the ability to relentlessly claim vengeance against those who murdered his wife and left him for dead.

Code: Select all

Video
 ID : 1
 Format : AVC
 Format/Info : Advanced Video Codec
 Format profile : High@L4.1
 Format settings : CABAC / 5 Ref Frames
 Format settings, CABAC : Yes
 Format settings, ReFrames : 5 frames
 Codec ID : V_MPEG4/ISO/AVC
 Duration : 1 h 39 min
 Bit rate : 9 455 kb/s
 Width : 1 920 pixels
 Height : 808 pixels
 Display aspect ratio : 2.40:1
 Frame rate mode : Constant
 Frame rate : 23.976 (24000/1001) FPS
 Color space : YUV
 Chroma subsampling : 4:2:0
 Bit depth : 8 bits
 Scan type : Progressive
 Bits/(Pixel*Frame) : 0.254
 Stream size : 6.60 GiB (72%)
 Title : Upgrade.2018.1080p.BluRay.x264.DTS-HD.MA.5.1-FGT
 Writing library : x264 core 155 r2901 7d0ff22
 Encoding settings : cabac=1 / ref=5 / deblock=1:-3:-3 / analyse=0x3:0x133 / me=umh / subme=8 / psy=1 / psy_rd=1.00:0.00 / mixed_ref=1 / me_range=16 / chroma_me=1 / trellis=1 / 8x8dct=1 / cqm=0 / deadzone=21,11 / fast_pskip=0 / chroma_qp_offset=-2 / threads=25 / lookahead_threads=4 / sliced_threads=0 / nr=0 / decimate=1 / interlaced=0 / bluray_compat=0 / constrained_intra=0 / bframes=3 / b_pyramid=2 / b_adapt=1 / b_bias=0 / direct=3 / weightb=1 / open_gop=0 / weightp=2 / keyint=250 / keyint_min=23 / scenecut=40 / intra_refresh=0 / rc_lookahead=50 / rc=2pass / mbtree=1 / bitrate=9455 / ratetol=1.0 / qcomp=0.60 / qpmin=0 / qpmax=69 / qpstep=4 / cplxblur=20.0 / qblur=0.5 / vbv_maxrate=62500 / vbv_bufsize=78125 / nal_hrd=none / filler=0 / ip_ratio=1.40 / aq=1:1.00
 Default : Yes
 Forced : No

 Audio
 ID : 2
 Format : DTS
 Format/Info : Digital Theater Systems
 Format profile : MA / Core
 Codec ID : A_DTS
 Duration : 1 h 39 min
 Bit rate mode : Variable / Constant
 Bit rate : 3 689 kb/s / 1 509 kb/s
 Channel(s) : 6 channels
 Channel positions : Front: L C R, Side: L R, LFE
 Sampling rate : 48.0 kHz
 Frame rate : 93.750 FPS (512 SPF)
 Bit depth : 24 bits
 Compression mode : Lossless / Lossy
 Stream size : 2.57 GiB (28%)
 Title : Upgrade.2018.1080p.BluRay.x264.DTS-HD.MA.5.1-FGT
 Language : English
 Default : Yes
 Forced : No

 Text #1
 ID : 3
 Format : UTF-8
 Codec ID : S_TEXT/UTF8
 Codec ID/Info : UTF-8 Plain Text
 Duration : 1 h 32 min
 Bit rate : 52 b/s
 Count of elements : 1290
 Stream size : 35.7 KiB (0%)
 Title : English-SRT
 Language : English
 Default : Yes
 Forced : No

 Text #2
 ID : 4
 Format : PGS
 Muxing mode : zlib
 Codec ID : S_HDMV/PGS
 Codec ID/Info : Picture based subtitle format used on BDs/HD-DVDs
 Duration : 1 h 33 min
 Bit rate : 39.7 kb/s
 Count of elements : 2648
 Stream size : 26.5 MiB (0%)
 Title : English-PGS
 Language : English
 Default : No
 Forced : No

 Text #3
 ID : 5
 Format : PGS
 Muxing mode : zlib
 Codec ID : S_HDMV/PGS
 Codec ID/Info : Picture based subtitle format used on BDs/HD-DVDs
 Duration : 1 h 39 min
 Bit rate : 28.7 kb/s
 Count of elements : 2108
 Stream size : 20.4 MiB (0%)
 Title : Spanish-PGS
 Language : Spanish
 Default : No
 Forced : No

 Text #4
 ID : 6
 Format : PGS
 Muxing mode : zlib
 Codec ID : S_HDMV/PGS
 Codec ID/Info : Picture based subtitle format used on BDs/HD-DVDs
 Duration : 1 h 39 min
 Bit rate : 26.9 kb/s
 Count of elements : 2108
 Stream size : 19.1 MiB (0%)
 Title : French-PGS
 Language : French
 Default : No
 Forced : No

 Menu
 00:00:00.000 : en:Chapter 01
 00:05:38.296 : en:Chapter 02
 00:09:04.919 : en:Chapter 03
 00:15:26.550 : en:Chapter 04
 00:18:42.704 : en:Chapter 05
 00:21:43.635 : en:Chapter 06
 00:28:37.465 : en:Chapter 07
 00:34:42.622 : en:Chapter 08
 00:41:17.057 : en:Chapter 09
 00:47:55.539 : en:Chapter 10
 00:51:14.988 : en:Chapter 11
 00:56:58.456 : en:Chapter 12
 01:01:34.565 : en:Chapter 13
 01:05:22.168 : en:Chapter 14
 01:09:10.938 : en:Chapter 15
 01:16:13.235 : en:Chapter 16
 01:20:17.103 : en:Chapter 17
 01:25:41.928 : en:Chapter 18
 01:31:45.249 : en:Chapter 19
Image Image
Image Image
Image Image



LINKS:

Upgrade.2018.1080p.BluRay.x264.DTS-HD.MA.5.1-FGT.mkv  [9.20 Gb]
Upgrade.2018.1080p.BluRay.x264.DTS-HD.MA.5.1-FGT.srt  [75.4 Kb]
Upgrade.2018.1080p.BluRay.x264.DTS-HD.MA.5.1-FGT.txt  [3.8 Kb]


[ Add all 3 links to your ed2k client ]
Image

Post Reply

Return to “HD Quality”