Terminal (2018) [WS REMUX] *1080p BluRay* - FGT

Release forum for : 720p, 1080i and 1080p.
Note: Please be aware of the technical requirements before posting in this section.

Moderator: unusual

Forum rules
Board rules & regulations

***Only movie releases with an horizontal resolution above 960pixels will be accepted in this section***
Post Reply
User avatar
lost_rider34
Phantom
Phantom
Posts: 506
Joined: October 1st 2009 - 6:36 pm
P2P Clients: eMule (v0.50b) Beta
Has thanked: 22 times
Been thanked: 115 times

Terminal (2018) [WS REMUX] *1080p BluRay* - FGT

Post by lost_rider34 » August 7th 2018 - 6:03 pm

Image
https://www.imdb.com/title/tt4463816/
In the dark heart of a sprawling, anonymous city, Terminal follows the twisting tales of two assassins carrying out a sinister mission, a teacher battling a fatal illness, an enigmatic janitor and a curious waitress leading a dangerous double life. Murderous consequences unravel in the dead of night as their lives all intertwine at the hands of a mysterious criminal mastermind hell-bent on revenge.

Code: Select all

Video
 ID : 1
 Format : AVC
 Format/Info : Advanced Video Codec
 Format profile : High@L4.1
 Format settings : CABAC / 4 Ref Frames
 Format settings, CABAC : Yes
 Format settings, ReFrames : 4 frames
 Codec ID : V_MPEG4/ISO/AVC
 Duration : 1 h 35 min
 Bit rate mode : Variable
 Bit rate : 31.1 Mb/s
 Maximum bit rate : 35.0 Mb/s
 Width : 1 920 pixels
 Height : 1 080 pixels
 Display aspect ratio : 16:9
 Frame rate mode : Constant
 Frame rate : 23.976 (24000/1001) FPS
 Standard : NTSC
 Color space : YUV
 Chroma subsampling : 4:2:0
 Bit depth : 8 bits
 Scan type : Progressive
 Bits/(Pixel*Frame) : 0.626
 Stream size : 20.8 GiB (79%)
 Title : Terminal.2018.WS.1080p.BluRay.REMUX.AVC.TrueHD.5.1-FGT
 Language : English
 Default : No
 Forced : No
 Color range : LIMITED
 Color primaries : BT.709
 Transfer characteristics : BT.709
 Matrix coefficients : BT.709

 Audio #1
 ID : 2
 Format : TrueHD
 Codec ID : A_TRUEHD
 Duration : 1 h 35 min
 Bit rate mode : Variable
 Bit rate : 3 410 kb/s
 Maximum bit rate : 4 848 kb/s
 Channel(s) : 6 channels
 Channel positions : Front: L C R, Side: L R, LFE
 Sampling rate : 48.0 kHz
 Frame rate : 1 200.000 FPS (40 SPF)
 Compression mode : Lossless
 Stream size : 2.28 GiB (9%)
 Title : Terminal.2018.WS.1080p.BluRay.REMUX.AVC.TrueHD.5.1-FGT
 Language : English
 Default : Yes
 Forced : No

 Audio #2
 ID : 3
 Format : AC-3
 Format/Info : Audio Coding 3
 Codec ID : A_AC3
 Duration : 1 h 35 min
 Bit rate mode : Constant
 Bit rate : 640 kb/s
 Channel(s) : 6 channels
 Channel positions : Front: L C R, Side: L R, LFE
 Sampling rate : 48.0 kHz
 Frame rate : 31.250 FPS (1536 SPF)
 Bit depth : 16 bits
 Compression mode : Lossy
 Stream size : 438 MiB (2%)
 Title : Terminal.2018.WS.1080p.BluRay.REMUX.AVC.TrueHD.5.1-FGT
 Language : English
 Service kind : Complete Main
 Default : No
 Forced : No

 Audio #3
 ID : 4
 Format : TrueHD
 Codec ID : A_TRUEHD
 Duration : 1 h 35 min
 Bit rate mode : Variable
 Bit rate : 3 669 kb/s
 Maximum bit rate : 4 938 kb/s
 Channel(s) : 6 channels
 Channel positions : Front: L C R, Side: L R, LFE
 Sampling rate : 48.0 kHz
 Frame rate : 1 200.000 FPS (40 SPF)
 Compression mode : Lossless
 Stream size : 2.45 GiB (9%)
 Title : Terminal.2018.WS.1080p.BluRay.REMUX.AVC.TrueHD.5.1-FGT
 Language : French
 Default : No
 Forced : No

 Audio #4
 ID : 5
 Format : AC-3
 Format/Info : Audio Coding 3
 Codec ID : A_AC3
 Duration : 1 h 35 min
 Bit rate mode : Constant
 Bit rate : 640 kb/s
 Channel(s) : 6 channels
 Channel positions : Front: L C R, Side: L R, LFE
 Sampling rate : 48.0 kHz
 Frame rate : 31.250 FPS (1536 SPF)
 Bit depth : 16 bits
 Compression mode : Lossy
 Stream size : 438 MiB (2%)
 Title : Terminal.2018.WS.1080p.BluRay.REMUX.AVC.TrueHD.5.1-FGT
 Language : French
 Service kind : Complete Main
 Default : No
 Forced : No

 Text #1
 ID : 6
 Format : PGS
 Muxing mode : zlib
 Codec ID : S_HDMV/PGS
 Codec ID/Info : Picture based subtitle format used on BDs/HD-DVDs
 Duration : 1 h 35 min
 Bit rate : 29.1 kb/s
 Count of elements : 3492
 Stream size : 19.9 MiB (0%)
 Title : English-PGS
 Language : English
 Default : Yes
 Forced : No

 Text #2
 ID : 7
 Format : PGS
 Muxing mode : zlib
 Codec ID : S_HDMV/PGS
 Codec ID/Info : Picture based subtitle format used on BDs/HD-DVDs
 Duration : 1 h 33 min
 Bit rate : 31.0 kb/s
 Count of elements : 3310
 Stream size : 20.8 MiB (0%)
 Title : French-PGS
 Language : French
 Default : No
 Forced : No

 Text #3
 ID : 8
 Format : PGS
 Muxing mode : zlib
 Codec ID : S_HDMV/PGS
 Codec ID/Info : Picture based subtitle format used on BDs/HD-DVDs
 Duration : 32 min 6 s
 Bit rate : 191 b/s
 Count of elements : 10
 Stream size : 45.0 KiB (0%)
 Title : French-FORCED-PGS
 Language : French
 Default : No
 Forced : No

 Menu
 00:00:00.000 : en:Chapter 01
 00:12:58.444 : en:Chapter 02
 00:27:33.818 : en:Chapter 03
 00:44:15.110 : en:Chapter 04
 00:58:40.183 : en:Chapter 05
 01:12:30.554 : en:Chapter 06
 01:22:04.544 : en:Chapter 07
 01:32:45.017 : en:Chapter 08
Image Image
Image Image
Image Image
Image Image


LINKS:

Terminal.2018.WS.1080p.BluRay.REMUX.AVC.TrueHD.5.1-FGT.mkv  [26.51 Gb]
Terminal.2018.WS.1080p.BluRay.REMUX.AVC.TrueHD.5.1-FGT.nfo  [4.0 Kb]
Terminal.2018.WS.1080p.BluRay.REMUX.AVC.TrueHD.5.1-FGT.srt  [100.3 Kb]


[ Add all 3 links to your ed2k client ]
Image

Post Reply

Return to “HD Quality”