The Escape of Prisoner 614 (2018) [REMUX] *1080p BluRay* - FGT

Release forum for : 720p, 1080i and 1080p.
Note: Please be aware of the technical requirements before posting in this section.

Moderator: unusual

Forum rules
Board rules & regulations

***Only movie releases with an horizontal resolution above 960pixels will be accepted in this section***
Post Reply
User avatar
lost_rider34
Phantom
Phantom
Posts: 506
Joined: October 1st 2009 - 6:36 pm
P2P Clients: eMule (v0.50b) Beta
Has thanked: 22 times
Been thanked: 115 times

The Escape of Prisoner 614 (2018) [REMUX] *1080p BluRay* - FGT

Post by lost_rider34 » August 7th 2018 - 6:02 pm

Image
https://www.imdb.com/title/tt7375578/
Ron Perlman ("Hellboy" and "Sons of Anarchy") is electrifying as a corrupt and cold-blooded sheriff in this contemporary western that delivers a double-barreled blast of action. After two deputy sheriffs lose their jobs because of poor arrest records, they purse an escaped convict to try and win back their badges. But nabbing the convict won't be half as dangerous as facing the ruthless sheriff who is tracking their every move.

Code: Select all

Video
 ID : 1
 Format : AVC
 Format/Info : Advanced Video Codec
 Format profile : High@L4.1
 Format settings : CABAC / 4 Ref Frames
 Format settings, CABAC : Yes
 Format settings, ReFrames : 4 frames
 Codec ID : V_MPEG4/ISO/AVC
 Duration : 1 h 37 min
 Bit rate mode : Variable
 Bit rate : 25.9 Mb/s
 Maximum bit rate : 35.0 Mb/s
 Width : 1 920 pixels
 Height : 1 080 pixels
 Display aspect ratio : 16:9
 Frame rate mode : Constant
 Frame rate : 23.976 (24000/1001) FPS
 Color space : YUV
 Chroma subsampling : 4:2:0
 Bit depth : 8 bits
 Scan type : Progressive
 Bits/(Pixel*Frame) : 0.521
 Stream size : 17.6 GiB (83%)
 Title : The.Escape.of.Prisoner.614.2018.1080p.BluRay.REMUX.AVC.DTS-HD.MA.5.1-FGT
 Language : English
 Default : No
 Forced : No

 Audio #1
 ID : 2
 Format : DTS
 Format/Info : Digital Theater Systems
 Format profile : MA / Core
 Codec ID : A_DTS
 Duration : 1 h 37 min
 Bit rate mode : Variable / Constant
 Bit rate : 3 840 kb/s / 1 509 kb/s
 Channel(s) : 6 channels
 Channel positions : Front: L C R, Side: L R, LFE
 Sampling rate : 48.0 kHz
 Frame rate : 93.750 FPS (512 SPF)
 Bit depth : 24 bits
 Compression mode : Lossless / Lossy
 Stream size : 2.62 GiB (12%)
 Title : The.Escape.of.Prisoner.614.2018.1080p.BluRay.REMUX.AVC.DTS-HD.MA.5.1-FGT
 Language : English
 Default : Yes
 Forced : No

 Audio #2
 ID : 3
 Format : DTS
 Format/Info : Digital Theater Systems
 Codec ID : A_DTS
 Duration : 1 h 37 min
 Bit rate mode : Constant
 Bit rate : 1 509 kb/s
 Channel(s) : 6 channels
 Channel positions : Front: L C R, Side: L R, LFE
 Sampling rate : 48.0 kHz
 Frame rate : 93.750 FPS (512 SPF)
 Bit depth : 24 bits
 Compression mode : Lossy
 Stream size : 1.03 GiB (5%)
 Title : The.Escape.of.Prisoner.614.2018.1080p.BluRay.REMUX.AVC.DTS-HD.MA.5.1-FGT
 Language : English
 Default : No
 Forced : No

 Text #1
 ID : 4
 Format : PGS
 Muxing mode : zlib
 Codec ID : S_HDMV/PGS
 Codec ID/Info : Picture based subtitle format used on BDs/HD-DVDs
 Duration : 1 h 35 min
 Bit rate : 38.8 kb/s
 Count of elements : 3176
 Stream size : 26.4 MiB (0%)
 Title : English-PGS
 Language : English
 Default : Yes
 Forced : No

 Text #2
 ID : 5
 Format : PGS
 Muxing mode : zlib
 Codec ID : S_HDMV/PGS
 Codec ID/Info : Picture based subtitle format used on BDs/HD-DVDs
 Duration : 1 h 32 min
 Bit rate : 33.9 kb/s
 Count of elements : 2678
 Stream size : 22.4 MiB (0%)
 Title : Spanish-PGS
 Language : Spanish
 Default : No
 Forced : No

 Menu
 00:00:00.000 : en:Chapter 01
 00:05:21.487 : en:Chapter 02
 00:14:11.183 : en:Chapter 03
 00:18:12.508 : en:Chapter 04
 00:23:42.921 : en:Chapter 05
 00:32:48.299 : en:Chapter 06
 00:39:56.769 : en:Chapter 07
 00:44:03.015 : en:Chapter 08
 00:50:52.549 : en:Chapter 09
 00:58:01.853 : en:Chapter 10
 01:02:51.601 : en:Chapter 11
 01:08:07.708 : en:Chapter 12
 01:14:33.469 : en:Chapter 13
 01:18:51.143 : en:Chapter 14
 01:25:10.105 : en:Chapter 15
 01:32:38.219 : en:Chapter 16
Image Image
Image Image

LINKS:

The.Escape.of.Prisoner.614.2018.1080p.BluRay.REMUX.AVC.DTS-HD.MA.5.1-FGT.mkv  [21.27 Gb]
The.Escape.of.Prisoner.614.2018.1080p.BluRay.REMUX.AVC.DTS-HD.MA.5.1-FGT.nfo  [3.0 Kb]
The.Escape.of.Prisoner.614.2018.1080p.BluRay.REMUX.AVC.DTS-HD.MA.5.1-FGT.srt  [98.6 Kb]


[ Add all 3 links to your ed2k client ]
Image

Post Reply

Return to “HD Quality”