Ready Player One (2018) [REMUX] *1080p BluRay* - FGT

Release forum for : 720p, 1080i and 1080p.
Note: Please be aware of the technical requirements before posting in this section.

Moderator: unusual

Forum rules
Board rules & regulations

***Only movie releases with an horizontal resolution above 960pixels will be accepted in this section***
Post Reply
User avatar
lost_rider34
Phantom
Phantom
Posts: 506
Joined: October 1st 2009 - 6:36 pm
P2P Clients: eMule (v0.50b) Beta
Has thanked: 22 times
Been thanked: 115 times

Ready Player One (2018) [REMUX] *1080p BluRay* - FGT

Post by lost_rider34 » August 7th 2018 - 6:01 pm

Image
https://www.imdb.com/title/tt1677720/
In the year 2045, people can escape their harsh reality in the OASIS, an immersive virtual world where you can go anywhere, do anything, be anyone-the only limits are your own imagination. OASIS creator James Halliday left his immense fortune and control of the Oasis to the winner of a contest designed to find a worthy heir. When unlikely hero Wade Watts conquers the first challenge of the reality-bending treasure hunt, he and his friends-known as the High Five-are hurled into a fantastical universe of discovery and danger to save the OASIS and their world.

Code: Select all

Video
 ID : 1
 Format : AVC
 Format/Info : Advanced Video Codec
 Format profile : High@L4.1
 Format settings : CABAC / 4 Ref Frames
 Format settings, CABAC : Yes
 Format settings, ReFrames : 4 frames
 Codec ID : V_MPEG4/ISO/AVC
 Duration : 2 h 19 min
 Bit rate mode : Variable
 Bit rate : 21.7 Mb/s
 Maximum bit rate : 31.0 Mb/s
 Width : 1 920 pixels
 Height : 1 080 pixels
 Display aspect ratio : 16:9
 Frame rate mode : Constant
 Frame rate : 23.976 (24000/1001) FPS
 Color space : YUV
 Chroma subsampling : 4:2:0
 Bit depth : 8 bits
 Scan type : Progressive
 Bits/(Pixel*Frame) : 0.436
 Stream size : 21.2 GiB (57%)
 Title : Ready.Player.One.2018.1080p.BluRay.REMUX.AVC.DTS-HD.MA.TrueHD.7.1.Atmos-FGT
 Language : English
 Default : No
 Forced : No

 Audio #1
 ID : 2
 Format : TrueHD
 Format profile : TrueHD+Atmos / TrueHD
 Codec ID : A_TRUEHD
 Duration : 2 h 19 min
 Bit rate mode : Variable
 Bit rate : 3 218 kb/s
 Maximum bit rate : 5 004 kb/s
 Channel(s) : Object Based / 8 channels
 Channel positions : Object Based / Front: L C R, Side: L R, Back: L R, LFE
 Sampling rate : / 48.0 kHz
 Frame rate : 1 200.000 FPS (40 SPF)
 Compression mode : Lossless
 Stream size : 3.15 GiB (8%)
 Title : Ready.Player.One.2018.1080p.BluRay.REMUX.AVC.DTS-HD.MA.TrueHD.7.1.Atmos-FGT
 Language : English
 Default : Yes
 Forced : No

 Audio #2
 ID : 3
 Format : DTS
 Format/Info : Digital Theater Systems
 Format profile : MA / Core
 Codec ID : A_DTS
 Duration : 2 h 19 min
 Bit rate mode : Variable / Constant
 Bit rate : 4 183 kb/s / 1 509 kb/s
 Channel(s) : 8 channels / 6 channels
 Channel positions : Front: L C R, Side: L R, Back: L R, LFE / Front: L C R, Side: L R, LFE
 Sampling rate : 48.0 kHz
 Frame rate : 93.750 FPS (512 SPF)
 Bit depth : 24 bits
 Compression mode : Lossless / Lossy
 Stream size : 4.09 GiB (11%)
 Title : Ready.Player.One.2018.1080p.BluRay.REMUX.AVC.DTS-HD.MA.TrueHD.7.1.Atmos-FGT
 Language : English
 Default : No
 Forced : No

 Audio #3
 ID : 4
 Format : AC-3
 Format/Info : Audio Coding 3
 Codec ID : A_AC3
 Duration : 2 h 19 min
 Bit rate mode : Constant
 Bit rate : 448 kb/s
 Channel(s) : 6 channels
 Channel positions : Front: L C R, Side: L R, LFE
 Sampling rate : 48.0 kHz
 Frame rate : 31.250 FPS (1536 SPF)
 Bit depth : 16 bits
 Compression mode : Lossy
 Stream size : 449 MiB (1%)
 Title : Ready.Player.One.2018.1080p.BluRay.REMUX.AVC.DTS-HD.MA.TrueHD.7.1.Atmos-FGT
 Language : English
 Service kind : Complete Main
 Default : No
 Forced : No

 Audio #4
 ID : 5
 Format : DTS
 Format/Info : Digital Theater Systems
 Format profile : MA / Core
 Codec ID : A_DTS
 Duration : 2 h 19 min
 Bit rate mode : Variable / Constant
 Bit rate : 2 329 kb/s / 1 509 kb/s
 Channel(s) : 6 channels
 Channel positions : Front: L C R, Side: L R, LFE
 Sampling rate : 48.0 kHz
 Frame rate : 93.750 FPS (512 SPF)
 Bit depth : 16 bits
 Compression mode : Lossless / Lossy
 Stream size : 2.28 GiB (6%)
 Title : Ready.Player.One.2018.1080p.BluRay.REMUX.AVC.DTS-HD.MA.TrueHD.7.1.Atmos-FGT
 Language : English
 Default : No
 Forced : No

 Audio #5
 ID : 6
 Format : DTS
 Format/Info : Digital Theater Systems
 Codec ID : A_DTS
 Duration : 2 h 19 min
 Bit rate mode : Constant
 Bit rate : 1 509 kb/s
 Channel(s) : 6 channels
 Channel positions : Front: L C R, Side: L R, LFE
 Sampling rate : 48.0 kHz
 Frame rate : 93.750 FPS (512 SPF)
 Bit depth : 16 bits
 Compression mode : Lossy
 Stream size : 1.48 GiB (4%)
 Title : Ready.Player.One.2018.1080p.BluRay.REMUX.AVC.DTS-HD.MA.TrueHD.7.1.Atmos-FGT
 Language : English
 Default : No
 Forced : No

 Audio #6
 ID : 7
 Format : AC-3
 Format/Info : Audio Coding 3
 Codec ID : A_AC3
 Duration : 2 h 19 min
 Bit rate mode : Constant
 Bit rate : 384 kb/s
 Channel(s) : 6 channels
 Channel positions : Front: L C R, Side: L R, LFE
 Sampling rate : 48.0 kHz
 Frame rate : 31.250 FPS (1536 SPF)
 Bit depth : 16 bits
 Compression mode : Lossy
 Stream size : 384 MiB (1%)
 Title : Ready.Player.One.2018.1080p.BluRay.REMUX.AVC.DTS-HD.MA.TrueHD.7.1.Atmos-FGT
 Language : English
 Service kind : Complete Main
 Default : No
 Forced : No

 Audio #7
 ID : 8
 Format : DTS
 Format/Info : Digital Theater Systems
 Format profile : MA / Core
 Codec ID : A_DTS
 Duration : 2 h 19 min
 Bit rate mode : Variable / Constant
 Bit rate : 2 303 kb/s / 1 509 kb/s
 Channel(s) : 6 channels
 Channel positions : Front: L C R, Side: L R, LFE
 Sampling rate : 48.0 kHz
 Frame rate : 93.750 FPS (512 SPF)
 Bit depth : 16 bits
 Compression mode : Lossless / Lossy
 Stream size : 2.25 GiB (6%)
 Title : Ready.Player.One.2018.1080p.BluRay.REMUX.AVC.DTS-HD.MA.TrueHD.7.1.Atmos-FGT
 Language : Italian
 Default : No
 Forced : No

 Audio #8
 ID : 9
 Format : DTS
 Format/Info : Digital Theater Systems
 Codec ID : A_DTS
 Duration : 2 h 19 min
 Bit rate mode : Constant
 Bit rate : 1 509 kb/s
 Channel(s) : 6 channels
 Channel positions : Front: L C R, Side: L R, LFE
 Sampling rate : 48.0 kHz
 Frame rate : 93.750 FPS (512 SPF)
 Bit depth : 16 bits
 Compression mode : Lossy
 Stream size : 1.48 GiB (4%)
 Title : Ready.Player.One.2018.1080p.BluRay.REMUX.AVC.DTS-HD.MA.TrueHD.7.1.Atmos-FGT
 Language : Italian
 Default : No
 Forced : No

 Audio #9
 ID : 10
 Format : AC-3
 Format/Info : Audio Coding 3
 Codec ID : A_AC3
 Duration : 2 h 19 min
 Bit rate mode : Constant
 Bit rate : 384 kb/s
 Channel(s) : 6 channels
 Channel positions : Front: L C R, Side: L R, LFE
 Sampling rate : 48.0 kHz
 Frame rate : 31.250 FPS (1536 SPF)
 Bit depth : 16 bits
 Compression mode : Lossy
 Stream size : 384 MiB (1%)
 Title : Ready.Player.One.2018.1080p.BluRay.REMUX.AVC.DTS-HD.MA.TrueHD.7.1.Atmos-FGT
 Language : Spanish
 Service kind : Complete Main
 Default : No
 Forced : No

 Text #1
 ID : 11
 Format : PGS
 Muxing mode : zlib
 Codec ID : S_HDMV/PGS
 Codec ID/Info : Picture based subtitle format used on BDs/HD-DVDs
 Duration : 2 h 18 min
 Bit rate : 36.3 kb/s
 Count of elements : 3682
 Stream size : 36.1 MiB (0%)
 Title : English-PGS
 Language : English
 Default : Yes
 Forced : No

 Text #2
 ID : 12
 Format : PGS
 Muxing mode : zlib
 Codec ID : S_HDMV/PGS
 Codec ID/Info : Picture based subtitle format used on BDs/HD-DVDs
 Duration : 2 h 19 min
 Bit rate : 34.8 kb/s
 Count of elements : 3778
 Stream size : 34.6 MiB (0%)
 Title : Italian-PGS
 Language : Italian
 Default : No
 Forced : No

 Text #3
 ID : 13
 Format : PGS
 Muxing mode : zlib
 Codec ID : S_HDMV/PGS
 Codec ID/Info : Picture based subtitle format used on BDs/HD-DVDs
 Duration : 2 h 18 min
 Bit rate : 31.8 kb/s
 Count of elements : 3210
 Stream size : 31.6 MiB (0%)
 Title : Spanish-PGS
 Language : Spanish
 Default : No
 Forced : No

 Text #4
 ID : 14
 Format : PGS
 Muxing mode : zlib
 Codec ID : S_HDMV/PGS
 Codec ID/Info : Picture based subtitle format used on BDs/HD-DVDs
 Duration : 2 h 18 min
 Bit rate : 28.8 kb/s
 Count of elements : 2522
 Stream size : 28.6 MiB (0%)
 Title : Danish-PGS
 Language : Danish
 Default : No
 Forced : No

 Text #5
 ID : 15
 Format : PGS
 Muxing mode : zlib
 Codec ID : S_HDMV/PGS
 Codec ID/Info : Picture based subtitle format used on BDs/HD-DVDs
 Duration : 2 h 18 min
 Bit rate : 32.2 kb/s
 Count of elements : 3258
 Stream size : 32.0 MiB (0%)
 Title : Finnish-PGS
 Language : Finnish
 Default : No
 Forced : No

 Text #6
 ID : 16
 Format : PGS
 Muxing mode : zlib
 Codec ID : S_HDMV/PGS
 Codec ID/Info : Picture based subtitle format used on BDs/HD-DVDs
 Duration : 2 h 18 min
 Bit rate : 32.6 kb/s
 Count of elements : 3186
 Stream size : 32.4 MiB (0%)
 Title : Greek-PGS
 Language : Greek
 Default : No
 Forced : No

 Text #7
 ID : 17
 Format : PGS
 Muxing mode : zlib
 Codec ID : S_HDMV/PGS
 Codec ID/Info : Picture based subtitle format used on BDs/HD-DVDs
 Duration : 2 h 18 min
 Bit rate : 27.4 kb/s
 Count of elements : 2542
 Stream size : 27.2 MiB (0%)
 Title : Norwegian-PGS
 Language : Norwegian
 Default : No
 Forced : No

 Text #8
 ID : 18
 Format : PGS
 Muxing mode : zlib
 Codec ID : S_HDMV/PGS
 Codec ID/Info : Picture based subtitle format used on BDs/HD-DVDs
 Duration : 2 h 18 min
 Bit rate : 30.9 kb/s
 Count of elements : 3212
 Stream size : 30.7 MiB (0%)
 Title : Swedish-PGS
 Language : Swedish
 Default : No
 Forced : No

 Text #9
 ID : 19
 Format : PGS
 Muxing mode : zlib
 Codec ID : S_HDMV/PGS
 Codec ID/Info : Picture based subtitle format used on BDs/HD-DVDs
 Duration : 2 h 18 min
 Bit rate : 944 b/s
 Count of elements : 100
 Stream size : 961 KiB (0%)
 Title : Italian-FORCED-PGS
 Language : Italian
 Default : No
 Forced : No

 Text #10
 ID : 20
 Format : PGS
 Muxing mode : zlib
 Codec ID : S_HDMV/PGS
 Codec ID/Info : Picture based subtitle format used on BDs/HD-DVDs
 Duration : 2 h 18 min
 Bit rate : 450 b/s
 Count of elements : 40
 Stream size : 459 KiB (0%)
 Title : Spanish-FORCED-PGS
 Language : Spanish
 Default : No
 Forced : No

 Menu
 00:00:00.000 : en:Chapter 01
 00:10:08.232 : en:Chapter 02
 00:20:18.258 : en:Chapter 03
 00:30:37.627 : en:Chapter 04
 00:40:38.269 : en:Chapter 05
 00:50:08.964 : en:Chapter 06
 01:03:01.778 : en:Chapter 07
 01:11:55.269 : en:Chapter 08
 01:20:14.726 : en:Chapter 09
 01:30:58.327 : en:Chapter 10
 01:43:26.742 : en:Chapter 11
 01:53:02.358 : en:Chapter 12
 02:04:20.161 : en:Chapter 13
 02:09:17.249 : en:Chapter 14

Image Image
Image Image
Image Image
Image Image


LINKS:

Ready.Player.One.2018.1080p.BluRay.REMUX.AVC.DTS-HD.MA.TrueHD.7.1.Atmos-FGT.mkv  [37.23 Gb]
Ready.Player.One.2018.1080p.BluRay.REMUX.AVC.DTS-HD.MA.TrueHD.7.1.Atmos-FGT.nfo  [9.4 Kb]
Ready.Player.One.2018.1080p.BluRay.REMUX.AVC.DTS-HD.MA.TrueHD.7.1.Atmos-FGT.srt  [114.8 Kb]


[ Add all 3 links to your ed2k client ]
Image

Post Reply

Return to “HD Quality”