Maleficent Mistress of Evil (2019) *1080p BluRay* - FGT

Release forum for : 720p, 1080i and 1080p.
Note: Please be aware of the technical requirements before posting in this section.

Moderator: unusual

Forum rules
Board rules & regulations

***Only movie releases with an horizontal resolution above 960pixels will be accepted in this section***
Post Reply
User avatar
lost_rider34
Phantom
Phantom
Posts: 568
Joined: October 1st 2009 - 6:36 pm
P2P Clients: eMule (v0.50b) Beta
Has thanked: 23 times
Been thanked: 150 times

Maleficent Mistress of Evil (2019) *1080p BluRay* - FGT

Post by lost_rider34 » February 14th 2020 - 1:32 am

Image
https://www.imdb.com/title/tt4777008/
In Disney's "Maleficent: Mistress of Evil," a sequel to the 2014 global box office hit, Maleficent and her goddaughter Aurora begin to question the complex family ties that bind them as they are pulled in different directions by impending nuptials, unexpected allies and dark new forces at play. The years have been kind to Maleficent and Aurora. Their relationship, born of heartbreak, revenge and ultimately love, has flourished. Yet the hatred between man and the fairies still exists. Aurora's impending marriage to Prince Phillip is cause for celebration in the kingdom of Ulstead and the neighboring Moors, as the wedding serves to unite the two worlds. When an unexpected encounter introduces a powerful new alliance, Maleficent and Aurora are pulled apart to opposing sides in a Great War, testing their loyalties and causing them to question whether they can truly be family.

Code: Select all

Video
 ID : 1
 Format : AVC
 Format/Info : Advanced Video Codec
 Format profile : High@L4.1
 Format settings : CABAC / 5 Ref Frames
 Format settings, CABAC : Yes
 Format settings, Reference frames : 5 frames
 Codec ID : V_MPEG4/ISO/AVC
 Duration : 1 h 58 min
 Bit rate : 9 025 kb/s
 Width : 1 920 pixels
 Height : 808 pixels
 Display aspect ratio : 2.40:1
 Frame rate mode : Constant
 Frame rate : 23.976 (24000/1001) FPS
 Color space : YUV
 Chroma subsampling : 4:2:0
 Bit depth : 8 bits
 Scan type : Progressive
 Bits/(Pixel*Frame) : 0.243
 Stream size : 7.49 GiB (63%)
 Title : Maleficent.Mistress.Of.Evil.2019.1080p.BluRay.x264.DTS-HD.MA.7.1-FGT
 Writing library : x264 core 157 r2969 d4099dd
 Encoding settings : cabac=1 / ref=5 / deblock=1:-3:-3 / analyse=0x3:0x113 / me=umh / subme=8 / psy=1 / psy_rd=1.00:0.00 / mixed_ref=1 / me_range=16 / chroma_me=1 / trellis=1 / 8x8dct=1 / cqm=0 / deadzone=21,11 / fast_pskip=1 / chroma_qp_offset=-2 / threads=25 / lookahead_threads=4 / sliced_threads=0 / nr=0 / decimate=1 / interlaced=0 / bluray_compat=0 / constrained_intra=0 / bframes=3 / b_pyramid=2 / b_adapt=1 / b_bias=0 / direct=3 / weightb=1 / open_gop=0 / weightp=2 / keyint=250 / keyint_min=23 / scenecut=40 / intra_refresh=0 / rc_lookahead=50 / rc=2pass / mbtree=1 / bitrate=9025 / ratetol=1.0 / qcomp=0.60 / qpmin=0 / qpmax=69 / qpstep=4 / cplxblur=20.0 / qblur=0.5 / ip_ratio=1.40 / aq=1:1.00
 Language : English
 Default : Yes
 Forced : No

 Audio
 ID : 2
 Format : DTS XLL
 Format/Info : Digital Theater Systems
 Commercial name : DTS-HD Master Audio
 Codec ID : A_DTS
 Duration : 1 h 58 min
 Bit rate mode : Variable
 Bit rate : 5 249 kb/s
 Channel(s) : 8 channels
 Channel layout : C L R LFE Lb Rb Lss Rss
 Sampling rate : 48.0 kHz
 Frame rate : 93.750 FPS (512 SPF)
 Bit depth : 24 bits
 Compression mode : Lossless
 Stream size : 4.36 GiB (37%)
 Title : Maleficent.Mistress.Of.Evil.2019.1080p.BluRay.x264.DTS-HD.MA.7.1-FGT
 Language : English
 Default : Yes
 Forced : No

 Text #1
 ID : 3
 Format : UTF-8
 Codec ID : S_TEXT/UTF8
 Codec ID/Info : UTF-8 Plain Text
 Duration : 1 h 52 min
 Bit rate : 34 b/s
 Count of elements : 1145
 Stream size : 28.3 KiB (0%)
 Title : English-SRT
 Language : English
 Default : Yes
 Forced : No

 Text #2
 ID : 4
 Format : PGS
 Muxing mode : zlib
 Codec ID : S_HDMV/PGS
 Codec ID/Info : Picture based subtitle format used on BDs/HD-DVDs
 Duration : 1 h 53 min
 Bit rate : 31.0 kb/s
 Count of elements : 3210
 Stream size : 25.1 MiB (0%)
 Title : English-PGS
 Language : English
 Default : No
 Forced : No

 Menu
 00:00:00.000 : en:00:00:00.000
 00:06:47.907 : en:00:06:47.907
 00:09:11.676 : en:00:09:11.676
 00:14:45.551 : en:00:14:45.551
 00:19:27.833 : en:00:19:27.833
 00:23:10.556 : en:00:23:10.556
 00:33:51.905 : en:00:33:51.905
 00:39:10.265 : en:00:39:10.265
 00:42:19.579 : en:00:42:19.579
 00:48:31.992 : en:00:48:31.992
 00:52:44.745 : en:00:52:44.745
 00:57:15.140 : en:00:57:15.140
 00:59:26.146 : en:00:59:26.146
 01:05:47.569 : en:01:05:47.569
 01:09:31.751 : en:01:09:31.751
 01:19:07.242 : en:01:19:07.242
 01:22:48.547 : en:01:22:48.547
 01:29:09.219 : en:01:29:09.219
 01:35:00.653 : en:01:35:00.653
 01:44:26.510 : en:01:44:26.510
 01:51:06.994 : en:01:51:06.994
Image Image
Image Image


LINKS:

Maleficent.Mistress.Of.Evil.2019.1080p.BluRay.x264.DTS-HD.MA.7.1-FGT.mkv  [11.86 Gb]
Image

Post Reply

Return to “HD Quality”