Three Billboards Outside Ebbing, Missouri (2017) *DVDScr* - Hive-CM8

Release forum for : DVDScr, R5, DDC, PPVRip and Workprint.

Moderator: unusual

Post Reply
User avatar
unusual
eD2k Moderator
eD2k Moderator
Posts: 3450
Joined: June 4th 2016 - 1:54 am
P2P Clients: eMule / aMule
Location: somewhere in sharing community :)
Has thanked: 1 time
Been thanked: 514 times
Contact:

Three Billboards Outside Ebbing, Missouri (2017) *DVDScr* - Hive-CM8

Post by unusual » January 12th 2018 - 8:50 pm

Image

Depois de meses sem ser encontrado o culpado no caso de homicídio da sua filha, Mildred Hayes faz uma jogada ousada ao alugar três cartazes à entrada da cidade com uma mensagem polémica dirigida a William Willoughby, o respeitado chefe de polícia da cidade. Mas quando o seu adjunto Dixon, um menino da mamã imaturo com uma inclinação para a violência, se envolve, a batalha entre Mildred e a lei de Ebbing, descontrola-se.

Mildred Hayes is the beleaguered mother of a young woman who was violently murdered. As the investigation into her daughter's death stalls, Mildred takes things into her own hands and hires a painter to erect three billboards on the main roads leading into the center of the city. The billboards are designed to capture the attention of the lackadaisical police chief, who seems to be doing next to nothing to find the young woman's killer. The deputy chief of police, a violent man himself, gets extremely riled up about the billboards, and a lot more violence and darkness takes place.
http://www.imdb.com/title/tt5027774/

Code: Select all

Three.Billboards.Outside.Ebbing,Missouri.2017.DVDScr.XviD.AC3.HQ.Hive-CM8 

Thx Hive 

CM8 Doing It Right The First Time 

Source: a cool dude on the street 
thx 

Notes: 
one more goodie 
Don´t forget watching a screener is not like the real thing, you should still all go to the cinema and support the Producers, thanks. 
We especially sharing this for the people who cant visit the cinema due to illness or because it is a LIMITED release that doesnt make it to their country, 
so that they also can experience some award nominations. 

Encode: 
quality was nice, not much to do 
enjoy 

Screeners: 
We are still missing suburbicon,downsizing, hostiles and phantom thread, anyone want to share for the collection? 
Don't post info public or on any blog its too risky, it has to be done safely and secure in private, and we have proven that we can do it. 
Msg us cm8crew@hushmail.com - we will respect your wishes 
if you want to share with us in private it will stay private 

Video: 720x304 @bitrate 1600 2pass 
Audio: English Stereo 
Sample: yes included 

General 
Complete name: Three.Billboards.Outside.Ebbing,Missouri.2017.DVDScr.XviD.AC3.HQ.Hive-CM8.avi 
Format: AVI 
Format/Info: Audio Video Interleave 
File size: 1.52 GiB 
Duration: 1h 55mn 
Overall bit rate: 1 887 Kbps 
Writing application: Nandub v1.0rc2 
Writing library: Nandub build 1853/release 

Video 
ID: 0 
Format: MPEG-4 Visual 
Format profile: Advanced Simple@L5 
Format settings, BVOP: 2 
Format settings, QPel: Yes 
Format settings, GMC: No warppoints 
Format settings, Matrix: Default (H.263) 
Muxing mode: Packed bitstream 
Codec ID: XviD 
Codec ID/Hint: XviD 
Duration: 1h 55mn 
Bit rate: 1 619 Kbps 
Width: 720 pixels 
Height: 304 pixels 
Display aspect ratio: 2.35:1 
Frame rate: 29.970 fps 
Color space: YUV 
Chroma subsampling: 4:2:0 
Bit depth: 8 bits 
Scan type: Progressive 
Compression mode: Lossy 
Bits/(Pixel*Frame): 0.247 
Stream size: 1.30 GiB (86%) 
Writing library: XviD 1.2.1 (UTC 2008-12-04) 

Audio 
ID: 1 
Format: AC-3 
Format/Info: Audio Coding 3 
Mode extension: CM (complete main) 
Format settings, Endianness: Big 
Codec ID: 2000 
Duration: 1h 55mn 
Bit rate mode: Constant 
Bit rate: 256 Kbps 
Channel(s): 2 channels 
Channel positions: Front: L R 
Sampling rate: 48.0 KHz 
Bit depth: 16 bits 
Compression mode: Lossy 
Delay relative to video: 28ms 
Stream size: 211 MiB (14%) 
Alignment: Split accross interleaves 
Interleave, duration: 33 ms (1.00 video frame) 
Interleave, preload duration: 500 ms 

Plot 
A mother personally challenges the local authorities to solve her daughter's murder when they fail to catch the culprit. 

Cast overview, first billed only: 
Frances McDormand ... Mildred 
Caleb Landry Jones ... Red Welby 
Kerry Condon ... Pamela 
Sam Rockwell ... Dixon 
Alejandro Barrios ... Latino 
Jason Redford ... Latino #2 
Darrell Britt-Gibson ... Jerome 
Woody Harrelson ... Willoughby 
Abbie Cornish ... Anne 
Riya May Atwood ... Polly 
Selah Atwood ... Jane 
Lucas Hedges ... Robbie 
Zeljko Ivanek ... Desk Sergeant (as Zeljko Ivanek) 
Amanda Warren ... Denise 
Malaya Rivera Drew ... Gabriella 

COME FIND US WE DONT BITE 

Image Image
Image Image


Three.Billboards.Outside.Ebbing,Missouri.(2017).DVDScr.XviD.AC3.HQ.Hive-CM8.avi  [1.52 Gb]
Image
Image

rothlisburger1
Ghoul
Ghoul
Posts: 76
Joined: September 3rd 2013 - 1:48 am
Has thanked: 214 times

Re: Three Billboards Outside Ebbing, Missouri (2017) *DVDScr* - Hive-CM8

Post by rothlisburger1 » February 3rd 2018 - 11:40 pm

Thank you.

Post Reply

Return to “Sub-Retail Quality”